<?xml version="1.0" standalone="no"?>
<!DOCTYPE svg PUBLIC "-//W3C//DTD SVG 1.1//EN" "http://www.w3.org/Graphics/SVG/1.1/DTD/svg11.dtd" >
<svg xmlns="http://www.w3.org/2000/svg">
<metadata>
This is a custom SVG webfont generated by Font Squirrel.
Copyright   : C 2010 dot colon
Designer    : arro
</metadata>
<defs>
<font id="VegurRegular" horiz-adv-x="1069" >
<font-face units-per-em="2048" ascent="1577" descent="-471" />
<missing-glyph horiz-adv-x="462" />
<glyph unicode=" "  horiz-adv-x="462" />
<glyph unicode="&#x09;" horiz-adv-x="462" />
<glyph unicode="&#xa0;" horiz-adv-x="462" />
<glyph unicode="!" horiz-adv-x="544" d="M389 96q0 -49 -35 -82.5t-82 -33.5q-49 0 -82.5 33.5t-33.5 82.5q0 47 33.5 82t82.5 35q47 0 82 -35t35 -82zM352 373h-159l-13 1016h185z" />
<glyph unicode="&#x22;" horiz-adv-x="663" d="M242 944h-123l-10 457q0 41 69 41h103zM530 944h-122l-11 457q0 41 70 41h102z" />
<glyph unicode="#" horiz-adv-x="1024" d="M698 528h191v-94h-207l-59 -362h-111l59 362h-196l-60 -362h-110l59 362h-174v94h189l47 291h-191v94h207l59 363h111l-59 -363h196l60 363h110l-59 -363h174v-94h-189zM586 528l47 291h-195l-47 -291h195z" />
<glyph unicode="$" d="M895 430q0 -143 -83 -237.5t-226 -120.5v-203h-127v192q-158 6 -291 70l20 139q154 -70 289 -69q113 0 172.5 52t59.5 148q0 84 -45.5 133.5t-174.5 102.5q-156 63 -222 140t-66 194q0 113 72.5 191.5t187.5 103.5v215h127v-203q147 -6 243 -61l-18 -134q-115 55 -248 56 q-78 0 -128 -41t-50 -111q0 -76 41 -120t145 -87q174 -72 248 -153.5t74 -196.5z" />
<glyph unicode="%" horiz-adv-x="1724" d="M1282 676q141 0 229 -102.5t88 -246t-88 -245.5t-229 -102t-229 102t-88 245.5t88 246t229 102.5zM1282 106q78 0 120 59.5t42 162t-42 162t-120 59.5t-120 -59.5t-42 -162t42 -162t120 -59.5zM442.5 1368q141.5 0 229.5 -102.5t88 -245.5t-88 -245.5t-229.5 -102.5 t-229.5 102.5t-88 245.5t88 245.5t229.5 102.5zM442.5 799q77.5 0 119.5 59.5t42 161.5t-42 161.5t-119.5 59.5t-119.5 -59.5t-42 -161.5t42 -161.5t119.5 -59.5zM1268 1409h131l-942 -1450h-131z" />
<glyph unicode="&#x26;" horiz-adv-x="1382" d="M1317 0h-223l-107 129h-4q-170 -150 -426 -149q-188 0 -325.5 96t-137.5 274q0 139 81 237.5t257 207.5v4q-72 55 -126 135t-54 162q0 139 97 226t233 87q143 0 231 -82t88 -209q0 -96 -63.5 -177t-186.5 -161v-4l346 -401h4q70 125 76 313h160q-12 -250 -139 -436z M580 1272q-61 0 -100.5 -45t-39.5 -121q0 -111 123 -223h4q152 96 152 223q0 80 -36.5 123t-102.5 43zM571 119q86 0 175.5 30.5t148.5 88.5v4l-377 450h-4q-123 -76 -177 -154.5t-54 -175.5q0 -109 83.5 -176t204.5 -67z" />
<glyph unicode="'" horiz-adv-x="374" d="M242 944h-123l-10 457q0 41 69 41h103z" />
<glyph unicode="(" horiz-adv-x="622" d="M317 629q0 -215 58.5 -435.5t152.5 -386.5h-127q-240 377 -239.5 821.5t239.5 821.5h127q-94 -166 -152.5 -386t-58.5 -435z" />
<glyph unicode=")" horiz-adv-x="622" d="M305 629q0 215 -58.5 435t-152.5 386h127q240 -377 240 -821.5t-240 -821.5h-127q94 166 152.5 386.5t58.5 435.5z" />
<glyph unicode="*" horiz-adv-x="978" d="M487 926l-149 -260l-129 94l201 223v4l-295 62l49 153l272 -123h4l-30 301h159l-30 -301h4l272 123l49 -153l-295 -62v-4l201 -223l-129 -94l-149 260h-5z" />
<glyph unicode="+" horiz-adv-x="1212" d="M676 588h424v-127h-424v-461h-139v461h-424v127h424v461h139v-461z" />
<glyph unicode="," horiz-adv-x="466" d="M137 125q14 55 84 55h131q-86 -260 -188 -491l-162 -27q76 240 135 463z" />
<glyph unicode="-" horiz-adv-x="759" d="M621 588v-127h-482v127h482z" />
<glyph unicode="." horiz-adv-x="462" d="M231 213q47 0 82 -35t35 -82q0 -49 -34.5 -82.5t-82.5 -33.5q-49 0 -82.5 33.5t-33.5 82.5q0 47 33.5 82t82.5 35z" />
<glyph unicode="/" horiz-adv-x="772" d="M631 1434h151l-641 -1510h-151z" />
<glyph unicode="0" d="M1012 669.5q0 -309.5 -122 -499.5t-355.5 -190t-355.5 190t-122 499.5t122 500t355.5 190.5t355.5 -190.5t122 -500zM246 670q0 -262 71.5 -406.5t217 -144.5t217 144.5t71.5 406.5t-71.5 406.5t-217 144.5t-217 -144.5t-71.5 -406.5z" />
<glyph unicode="1" d="M586 1348h86v-1348h-172v1153l-273 -106l-18 133z" />
<glyph unicode="2" d="M944 131v-131h-860v137l154 170q317 350 399 464t82 218q0 115 -70.5 177.5t-206.5 62.5q-127 0 -268 -74l-18 137q147 76 319 76q205 0 318.5 -95t113.5 -253q0 -139 -90 -273.5t-385 -461.5l-133 -150v-4h645z" />
<glyph unicode="3" d="M414 -20q-180 0 -320 61l19 137q162 -59 325 -59q135 0 224.5 65.5t89.5 180.5q0 240 -363 256v131q139 10 233.5 82.5t94.5 189.5q0 98 -78 151.5t-193 53.5q-121 0 -258 -60l-18 138q154 61 326 61q182 0 295.5 -87t113.5 -228q0 -231 -291 -332v-4q145 -35 235.5 -119 t90.5 -211q0 -195 -147.5 -301t-378.5 -106z" />
<glyph unicode="4" d="M852 459h184v-131h-184v-328h-172v328h-631v135l621 885h182v-889zM236 459h444v340q0 162 12 350h-4q-78 -131 -186 -295l-266 -391v-4z" />
<glyph unicode="5" d="M336 786q90 43 188 43q186 0 304 -108.5t118 -280.5q0 -207 -144.5 -333.5t-367.5 -126.5q-180 0 -319 67l18 141q166 -70 322 -69q135 0 219 81t84 216q0 125 -75 199.5t-194 74.5q-113 0 -188 -53l-137 6l20 705h682v-131h-522l-14 -431h6z" />
<glyph unicode="6" d="M530 -20q-199 0 -320.5 158.5t-121.5 420.5q0 184 60.5 339t160 254t225 155.5t261.5 60.5l18 -133q-227 -25 -372.5 -170t-166.5 -385h5q31 63 118.5 112.5t184.5 49.5q176 0 289.5 -114t113.5 -284q0 -207 -131 -335.5t-324 -128.5zM526 702q-111 0 -181.5 -65.5 t-70.5 -175.5q0 -152 78 -247t193 -95q113 0 182.5 80t69.5 217q0 125 -74 205.5t-197 80.5z" />
<glyph unicode="7" d="M969 1348v-129l-553 -1219h-180l557 1212v5h-662v131h838z" />
<glyph unicode="8" d="M688 715q145 -68 215 -151t70 -195q0 -174 -129 -281.5t-312 -107.5q-186 0 -312 95t-126 267q0 123 79 206t220 146v4q-246 129 -246 328q0 143 117 242.5t287 99.5t278.5 -91t108.5 -237q0 -197 -250 -321v-4zM332 1034q0 -82 51 -138t164 -114q207 78 207 238 q0 96 -56.5 154.5t-148.5 58.5q-96 0 -156.5 -56.5t-60.5 -142.5zM537 115q111 0 181 64.5t70 174.5q0 188 -256 285q-254 -96 -253 -274q0 -113 71.5 -181.5t186.5 -68.5z" />
<glyph unicode="9" d="M539 1368q199 0 320.5 -158.5t121.5 -421.5q0 -184 -60.5 -338.5t-159.5 -254t-225 -155.5t-262 -60l-18 133q227 25 371.5 170t167.5 385h-4q-33 -63 -120 -112.5t-184 -49.5q-176 0 -289.5 112.5t-113.5 284.5q0 207 131 336t324 129zM543 645q111 0 181.5 65.5 t70.5 176.5q0 152 -78 247t-193 95q-113 0 -182.5 -80t-69.5 -217q0 -125 74 -206t197 -81z" />
<glyph unicode=":" horiz-adv-x="462" d="M231 213q47 0 82 -35t35 -82q0 -49 -34.5 -82.5t-82.5 -33.5q-49 0 -82.5 33.5t-33.5 82.5q0 47 33.5 82t82.5 35zM231 1012q47 0 82 -35t35 -82q0 -49 -34.5 -83t-82.5 -34q-49 0 -82.5 34t-33.5 83q0 47 33.5 82t82.5 35z" />
<glyph unicode=";" horiz-adv-x="489" d="M137 125q14 55 84 55h131q-86 -260 -188 -491l-162 -27q76 240 135 463zM258 1012q47 0 82 -35t35 -82q0 -49 -35 -83t-82 -34q-49 0 -83 34t-34 83q0 47 34 82t83 35z" />
<glyph unicode="&#x3c;" horiz-adv-x="970" d="M223 539l619 -330v-160l-758 412v160l758 411v-160l-619 -327v-6z" />
<glyph unicode="=" horiz-adv-x="1331" d="M1169 236h-1007v126h1007v-126zM1169 686h-1007v127h1007v-127z" />
<glyph unicode="&#x3e;" horiz-adv-x="970" d="M748 543l-619 329v160l758 -411v-160l-758 -412v160l619 328v6z" />
<glyph unicode="?" horiz-adv-x="831" d="M444 96q0 47 -34.5 82t-81.5 35q-49 0 -83 -35t-34 -82q0 -49 34 -82.5t83 -33.5q47 0 81.5 33.5t34.5 82.5zM737 1104q0 -96 -45 -174t-137 -182q-84 -94 -112.5 -158t-28.5 -148v-69h-172v51q0 129 35.5 211t132.5 188q139 154 139 262q0 86 -57.5 135.5t-155.5 49.5 q-123 0 -244 -68l-18 137q133 70 291 70q170 0 271 -85t101 -220z" />
<glyph unicode="@" horiz-adv-x="1808" d="M1030 1208q260 0 432 -169t172 -394q0 -236 -115.5 -389.5t-293.5 -153.5q-141 0 -195 123h-4q-109 -137 -266 -137q-96 0 -173 81t-77 200q0 244 133 379t367 135q141 0 231 -47l-74 -484q-16 -78 15.5 -116.5t89.5 -38.5q96 0 167.5 112.5t71.5 294.5q0 225 -145 367.5 t-383 142.5q-190 0 -355 -86t-268.5 -251t-103.5 -374q0 -260 156.5 -421.5t378.5 -161.5q238 0 419 108l13 -94q-197 -109 -455 -108q-270 0 -452.5 181t-182.5 462q0 371 264 605t633 234zM1049 483l36 269q-76 16 -102 16q-145 0 -231 -97.5t-86 -281.5q0 -84 42 -135 t99 -51q92 0 157 71.5t85 208.5z" />
<glyph unicode="A" horiz-adv-x="1234" d="M1008 0l-152 457h-485l-154 -457h-168l483 1389h175l483 -1389h-182zM410 588h407l-8 24q-139 416 -193 609h-6q-63 -223 -192 -609z" />
<glyph unicode="B" horiz-adv-x="1116" d="M735 756q276 -80 277 -328q0 -203 -148.5 -320.5t-404.5 -117.5q-166 0 -303 22v1360q180 27 344 27q227 0 351 -84t124 -238q0 -121 -68.5 -200.5t-171.5 -116.5v-4zM328 782h178q119 0 199.5 69t80.5 179q0 113 -76.5 171.5t-222.5 58.5q-78 0 -159 -13v-465zM494 655 h-166v-516q70 -10 164 -10q150 0 240.5 70.5t90.5 199.5q0 121 -83.5 188.5t-245.5 67.5z" />
<glyph unicode="C" horiz-adv-x="1232" d="M78 676q0 334 210 533.5t521 199.5q233 0 365 -66l-19 -141q-162 68 -338 68q-238 0 -394.5 -157t-156.5 -423q0 -274 141.5 -422.5t383.5 -148.5q188 0 348 69l18 -141q-158 -68 -385 -67q-307 0 -500.5 184t-193.5 512z" />
<glyph unicode="D" horiz-adv-x="1406" d="M156 1370q166 29 362 29q387 0 599 -167t212 -495q0 -182 -67.5 -327.5t-183 -235.5t-260 -137t-304.5 -47q-201 0 -358 22v1358zM328 1247v-1110q96 -8 207 -8q262 0 434 151.5t172 436.5q0 254 -157 398.5t-447 144.5q-133 -1 -209 -13z" />
<glyph unicode="E" horiz-adv-x="1005" d="M328 139h585v-139h-757v1389h739v-140h-567v-463h497v-139h-497v-508z" />
<glyph unicode="F" horiz-adv-x="954" d="M328 0h-172v1389h739v-140h-567v-483h497v-139h-497v-627z" />
<glyph unicode="G" horiz-adv-x="1337" d="M811 1270q-238 0 -391.5 -153.5t-153.5 -426.5q0 -285 140.5 -423t388.5 -138q133 0 241 33v403h-278v140h450v-644q-76 -33 -206 -52t-230 -19q-313 0 -503.5 180t-190.5 506q0 330 208 531.5t517 201.5q233 0 364 -66l-18 -141q-162 68 -338 68z" />
<glyph unicode="H" horiz-adv-x="1398" d="M1071 1389h172v-1389h-172v645h-743v-645h-172v1389h172v-605h743v605z" />
<glyph unicode="I" horiz-adv-x="483" d="M328 0h-172v1389h172v-1389z" />
<glyph unicode="J" horiz-adv-x="794" d="M649 481q0 -502 -442 -501q-104 0 -201 28l19 139q92 -29 182 -28q143 0 206.5 81t63.5 265v924h172v-908z" />
<glyph unicode="K" horiz-adv-x="1130" d="M1126 1389l-579 -641l620 -748h-235l-492 627h-6l-106 -117v-510h-172v1389h172v-674h8l577 674h213z" />
<glyph unicode="L" horiz-adv-x="997" d="M328 131h633v-131h-805v1389h172v-1258z" />
<glyph unicode="M" horiz-adv-x="1677" d="M1495 1389l49 -1389h-172l-29 803q-2 65 -2 131q0 112 7 231h-7q-43 -166 -120 -362l-310 -762h-166l-305 762q-74 182 -118 356h-7q8 -117 9 -236q0 -60 -2 -120l-29 -803h-160l49 1389h213l283 -719q98 -246 153 -453h7q53 186 159 453l287 719h211z" />
<glyph unicode="N" horiz-adv-x="1409" d="M1260 1389v-1389h-199l-502 778q-92 139 -254 420h-6q10 -297 10 -473v-725h-159v1389h219l501 -779q141 -219 234 -391h6q-10 301 -10 445v725h160z" />
<glyph unicode="O" horiz-adv-x="1499" d="M749.5 1409q286.5 0 479 -194.5t192.5 -520t-192.5 -520t-479 -194.5t-479 194.5t-192.5 520t192.5 520t479 194.5zM750 1270q-213 0 -348.5 -152.5t-135.5 -423t135.5 -423t348.5 -152.5t348 152.5t135 423t-135 423t-348 152.5z" />
<glyph unicode="P" horiz-adv-x="1042" d="M328 1249v-565q70 -6 143 -6q139 0 237.5 75.5t98.5 217.5q0 135 -86 212t-229 77q-92 -1 -164 -11zM156 0v1370q188 29 342 29q231 0 364 -106.5t133 -295.5q0 -215 -157.5 -336.5t-376.5 -121.5q-55 0 -129 6h-4v-545h-172z" />
<glyph unicode="Q" horiz-adv-x="1499" d="M1421 694q0 -246 -116.5 -421t-309.5 -248l78 -291l-168 -41l-71 293q-39 -6 -84 -6q-287 0 -479.5 194.5t-192.5 520t192.5 520t479 194.5t479 -194.5t192.5 -520.5zM750 1270q-213 0 -348.5 -152.5t-135.5 -423t135.5 -423t348.5 -152.5t348 152.5t135 423t-135 423 t-348 152.5z" />
<glyph unicode="R" horiz-adv-x="1085" d="M328 731h143q164 0 256 67.5t92 207.5q0 125 -84 188t-231 63q-100 0 -176 -12v-514zM506 600h-178v-600h-172v1362q186 35 356 35q236 0 366 -91.5t130 -265.5q0 -129 -82 -223t-195 -127v-4q92 -37 134 -102.5t69 -190.5q53 -248 104 -393h-196q-49 178 -90 381 q-20 104 -76.5 161.5t-169.5 57.5z" />
<glyph unicode="S" horiz-adv-x="1013" d="M137 1038q0 166 126 268.5t319 102.5q164 0 280 -49l-18 -139q-125 49 -252 49q-117 0 -192.5 -56.5t-75.5 -156.5q0 -102 56 -162.5t181 -110.5q190 -76 274.5 -160.5t84.5 -224.5q0 -201 -143.5 -310t-360.5 -109q-182 0 -322 51l19 141q158 -53 311 -53 q137 0 223 63.5t86 182.5q0 98 -57.5 157.5t-198.5 116.5q-182 74 -261 164t-79 235z" />
<glyph unicode="T" horiz-adv-x="1015" d="M1012 1389v-140h-420v-1249h-172v1249h-416v140h1008z" />
<glyph unicode="U" horiz-adv-x="1251" d="M1114 477q0 -240 -136 -368.5t-349 -128.5q-211 0 -348.5 122.5t-137.5 335.5v951h172v-930q0 -168 84 -254t234 -86q322 0 321 340v930h160v-912z" />
<glyph unicode="V" horiz-adv-x="1157" d="M987 1389h168l-483 -1389h-176l-484 1389h183l204 -613q115 -344 189 -614h6q80 293 188 614z" />
<glyph unicode="W" horiz-adv-x="1822" d="M1640 1389h172l-417 -1389h-178l-181 674q-61 219 -118 510h-7q-43 -231 -114 -508l-183 -676h-176l-418 1389h185l192 -672q90 -309 131 -535h7q45 258 118 531l181 676h178l180 -674q68 -258 119 -535h6q51 258 131 535z" />
<glyph unicode="X" horiz-adv-x="1044" d="M1020 1389l-404 -674l433 -715h-201l-328 586h-4l-323 -586h-185l424 707l-412 682h201l305 -553h4l306 553h184z" />
<glyph unicode="Y" horiz-adv-x="1089" d="M903 1389h184l-448 -785v-604h-172v590l-455 799h197l342 -641h6z" />
<glyph unicode="Z" horiz-adv-x="1120" d="M260 131h795v-131h-981v147l757 1106v4h-698v132h881v-148l-754 -1106v-4z" />
<glyph unicode="[" horiz-adv-x="634" d="M557 1307h-229v-1358h229v-127h-369v1612h369v-127z" />
<glyph unicode="\" horiz-adv-x="772" d="M141 1434l641 -1510h-151l-641 1510h151z" />
<glyph unicode="]" horiz-adv-x="634" d="M78 1307v127h368v-1612h-368v127h237v1358h-237z" />
<glyph unicode="^" horiz-adv-x="1134" d="M645 1380l375 -798h-156l-293 651h-4l-297 -651h-155l374 798h156z" />
<glyph unicode="_" horiz-adv-x="1155" d="M1081 -227h-1007v127h1007v-127z" />
<glyph unicode="`" horiz-adv-x="581" d="M68 1442h137q29 0 47 -31q80 -145 174 -287l-152 -6q-108 148 -206 324z" />
<glyph unicode="a" horiz-adv-x="1011" d="M504 1012q174 0 268 -87t94 -253v-672h-166l-6 154h-4q-41 -80 -117.5 -127t-175.5 -47q-127 0 -218 85t-91 230q0 160 124 251t318 91q92 0 164 -12v28q0 227 -215 228q-119 0 -266 -58l-16 131q149 58 307 58zM694 426v86q-82 12 -137 12q-285 0 -285 -217 q0 -90 48.5 -143t128.5 -53q111 0 178 85t67 230z" />
<glyph unicode="b" horiz-adv-x="1181" d="M332 154h-4l-6 -154h-166v1475h172v-637h4q125 174 332 174q203 0 318.5 -135.5t115.5 -362.5q0 -236 -124 -385t-323 -149q-213 0 -319 174zM328 555v-119q0 -141 83 -233t203 -92q145 0 224.5 103t79.5 284q0 174 -81 278.5t-227 104.5q-127 0 -204.5 -95.5 t-77.5 -230.5z" />
<glyph unicode="c" horiz-adv-x="950" d="M264 500q0 -193 91 -291t245 -98q137 0 264 57l17 -131q-133 -57 -312 -57q-215 0 -350 130t-135 367q0 254 150.5 394.5t388.5 140.5q150 0 268 -60l-17 -131q-125 59 -266 60q-152 0 -248 -99.5t-96 -281.5z" />
<glyph unicode="d" horiz-adv-x="1181" d="M850 838h4v637h172v-1475h-166l-6 154h-4q-125 -174 -332 -174q-203 0 -318.5 135t-115.5 362q0 236 124 385.5t322 149.5q214 0 320 -174zM854 436v119q0 141 -83 233.5t-204 92.5q-145 0 -224 -104.5t-79 -282.5q0 -174 81 -278.5t226 -104.5q127 0 205 95t78 230z" />
<glyph unicode="e" horiz-adv-x="1040" d="M946 457h-690q2 -166 91 -256t240.5 -90t270.5 57l16 -131q-141 -57 -311 -57q-217 0 -348 126.5t-131 370.5q0 229 136 382t343 153q184 0 286.5 -129t102.5 -328q0 -43 -6 -98zM549 881q-121 0 -193.5 -77t-91.5 -212h518q0 127 -61 208t-172 81z" />
<glyph unicode="f" horiz-adv-x="714" d="M233 1055q0 211 100.5 325.5t282.5 114.5q88 0 162 -29l-16 -127q-68 25 -144 25q-102 0 -157 -73.5t-55 -209.5v-90h253v-131h-253v-860h-173v860h-161v131h161v64z" />
<glyph unicode="g" horiz-adv-x="1177" d="M1022 991v-837q0 -293 -145.5 -434.5t-391.5 -141.5q-190 0 -319 72l16 135q154 -76 295 -76q170 0 271.5 93.5t101.5 291.5v72h-4q-125 -174 -332 -174q-199 0 -314.5 134t-115.5 359q0 233 123 380t319 147q213 0 320 -174h4l6 153h166zM563 881q-141 0 -220 -101.5 t-79 -277.5q0 -174 80 -276.5t223 -102.5q127 0 205 95t78 231v106q0 141 -83 233.5t-204 92.5z" />
<glyph unicode="h" horiz-adv-x="1122" d="M328 827h4q125 184 323 185q322 0 322 -367v-645h-172v592q0 150 -42 215t-157 65q-119 0 -198.5 -89t-79.5 -238v-545h-172v1475h172v-648z" />
<glyph unicode="i" horiz-adv-x="483" d="M156 0v991h172v-991h-172zM242 1137q-45 0 -76 30.5t-31 75.5t31 76t76 31t75.5 -31t30.5 -76t-30.5 -75.5t-75.5 -30.5z" />
<glyph unicode="j" horiz-adv-x="507" d="M266 1137q-45 0 -75.5 30.5t-30.5 75.5t30.5 76t75.5 31t76 -31t31 -76t-31 -75.5t-76 -30.5zM180 68v923h172v-911q0 -449 -440 -502l-16 135q152 31 218 106t66 249z" />
<glyph unicode="k" horiz-adv-x="995" d="M971 991l-408 -413l455 -578h-221l-348 455h-7l-114 -123v-332h-172v1475h172v-953h6l414 469h223z" />
<glyph unicode="l" horiz-adv-x="483" d="M328 0h-172v1475h172v-1475z" />
<glyph unicode="m" horiz-adv-x="1681" d="M1364 612q0 260 -180 260q-115 0 -183.5 -99t-68.5 -269v-504h-172v612q0 260 -180 260q-115 0 -183.5 -100t-68.5 -268v-504h-172v991h166l6 -164h4q119 184 301 185q217 0 278 -224h7q51 102 134 163t185 61q147 0 223 -89t76 -257v-666h-172v612z" />
<glyph unicode="n" horiz-adv-x="1122" d="M328 827h4q125 184 323 185q322 0 322 -367v-645h-172v592q0 150 -42 215t-157 65q-119 0 -198.5 -89t-79.5 -238v-545h-172v991h166z" />
<glyph unicode="o" horiz-adv-x="1122" d="M561 1012q219 0 348 -146.5t129 -370t-129 -369.5t-348 -146t-348 146t-129 369.5t129 370t348 146.5zM561.5 111q147.5 0 222 109.5t74.5 275.5t-74.5 275.5t-222 109.5t-222.5 -109.5t-75 -275.5t75 -275.5t222.5 -109.5z" />
<glyph unicode="p" horiz-adv-x="1181" d="M332 154h-4v-555h-172v1392h166l6 -153h4q125 174 332 174q203 0 318.5 -135.5t115.5 -362.5q0 -236 -124 -385t-323 -149q-213 0 -319 174zM328 555v-119q0 -141 83 -233t203 -92q145 0 224.5 103t79.5 284q0 174 -81 278.5t-227 104.5q-127 0 -204.5 -95.5 t-77.5 -230.5z" />
<glyph unicode="q" horiz-adv-x="1181" d="M850 838h4l6 153h166v-1392h-172v555h-4q-125 -174 -332 -174q-203 0 -318.5 135t-115.5 362q0 236 124 385.5t322 149.5q214 0 320 -174zM854 436v119q0 141 -83 233.5t-204 92.5q-145 0 -224 -104.5t-79 -282.5q0 -174 81 -278.5t226 -104.5q127 0 205 95t78 230z" />
<glyph unicode="r" horiz-adv-x="643" d="M612 842q-51 -2 -106 -29q-86 -39 -132 -128t-46 -269v-416h-172v991h170l2 -215h4q41 98 116.5 165t167.5 71z" />
<glyph unicode="s" horiz-adv-x="819" d="M371 430q-246 82 -246 287q0 133 89 214t249 81q135 0 221 -45l-16 -131q-96 45 -199 45q-74 0 -121 -37t-47 -99q0 -66 38 -108.5t128 -73.5q131 -47 192.5 -112.5t61.5 -163.5q0 -143 -106.5 -225t-268.5 -82q-158 0 -264 53l16 133q123 -55 242 -55q88 0 146.5 38.5 t58.5 106.5q0 63 -41 103t-133 71z" />
<glyph unicode="t" horiz-adv-x="714" d="M621 991v-131h-238v-573q0 -90 33 -133t106 -43q61 0 111 20l18 -125q-61 -27 -182 -26q-123 0 -190.5 65.5t-67.5 198.5v616h-158v131h158v219h172v-219h238z" />
<glyph unicode="u" horiz-adv-x="1122" d="M795 164h-4q-125 -184 -324 -184q-322 0 -322 366v645h172v-592q0 -150 42 -215t157 -65q119 0 199 89t80 238v545h172v-991h-166z" />
<glyph unicode="v" horiz-adv-x="985" d="M805 991h168l-391 -991h-174l-390 991h185l182 -495q80 -215 115 -334h6q59 184 117 334z" />
<glyph unicode="w" horiz-adv-x="1542" d="M1350 991h172l-340 -991h-178l-144 473q-45 152 -84 338h-6q-41 -199 -82 -336l-141 -475h-178l-342 991h186l152 -469q66 -215 96 -356h6q31 166 86 352l141 473h174l140 -471q61 -207 90 -356h6q29 143 94 356z" />
<glyph unicode="x" horiz-adv-x="962" d="M915 991l-346 -475v-6l375 -510h-213l-258 393h-6l-258 -393h-197l367 502v6l-354 483h213l233 -364h6l242 364h196z" />
<glyph unicode="y" horiz-adv-x="985" d="M414 -18l-396 1009h185l182 -495q80 -215 115 -334h6q59 184 117 334l182 495h168l-400 -1011q-74 -182 -184 -275.5t-278 -126.5l-17 135q233 47 307 236z" />
<glyph unicode="z" horiz-adv-x="858" d="M760 854l-510 -717v-6h538v-131h-725v137l510 717v6h-462v131h649v-137z" />
<glyph unicode="{" horiz-adv-x="704" d="M145 565v127q98 10 126 48t14 153l-27 233q-18 174 76 251t299 77v-127q-125 0 -186.5 -35t-53.5 -118l31 -265q14 -123 -19.5 -182t-130.5 -96v-4q96 -37 130 -96.5t20 -182.5l-31 -264q-8 -84 53.5 -119t186.5 -35v-127q-205 0 -299 77t-76 251l27 234 q14 115 -14 152.5t-126 47.5z" />
<glyph unicode="|" horiz-adv-x="516" d="M328 -512h-140v2048h140v-2048z" />
<glyph unicode="}" horiz-adv-x="704" d="M559 565q-98 -10 -125.5 -48t-13.5 -152l26 -234q18 -174 -76 -251t-298 -77v127q125 0 186 35t53 119l-30 264q-14 123 19.5 182.5t129.5 96.5v4q-96 37 -130 96t-19 182l30 265q8 84 -53 118.5t-186 34.5v127q205 0 299 -77t75 -251l-26 -233q-14 -115 13.5 -153 t125.5 -48v-127z" />
<glyph unicode="~" horiz-adv-x="1318" d="M633 461q-236 98 -281 98q-96 0 -100 -153h-127q0 145 62.5 216.5t174.5 71.5q49 0 108.5 -19.5t215.5 -86.5q236 -98 281 -99q96 0 100 152h127q0 -287 -238 -287q-49 0 -108 19.5t-215 87.5z" />
<glyph unicode="&#xa5;" d="M983 1348l-299 -578h221v-94h-280v-137h280v-95h-280v-444h-172v444h-281v95h281v137h-281v94h217l-301 578h193l129 -277q51 -102 129 -309h6q68 184 129 309l129 277h180z" />
<glyph unicode="&#xad;" horiz-adv-x="759" d="M621 588v-127h-482v127h482z" />
<glyph unicode="&#xc4;" horiz-adv-x="1234" d="M1008 0l-152 457h-485l-154 -457h-168l483 1389h175l483 -1389h-182zM410 588h407l-8 24q-139 416 -193 609h-6q-63 -223 -192 -609zM801 1475q-39 0 -67.5 28.5t-28.5 67.5t28.5 67.5t67.5 28.5t67.5 -28.5t28.5 -67.5t-28.5 -67.5t-67.5 -28.5zM444.5 1475 q-38.5 0 -67.5 28.5t-29 67.5t29 67.5t67.5 28.5t67.5 -28.5t29 -67.5t-29 -67.5t-67.5 -28.5z" />
<glyph unicode="&#xc5;" horiz-adv-x="1234" d="M1008 0l-152 457h-485l-154 -457h-168l483 1389h175l483 -1389h-182zM410 588h407l-8 24q-139 416 -193 609h-6q-63 -223 -192 -609zM618.5 1751q67.5 0 115.5 -44t48 -111.5t-48 -111.5t-115.5 -44t-115.5 44t-48 111.5t48 111.5t115.5 44zM618.5 1518q30.5 0 53 21.5 t22.5 56t-22.5 56t-53 21.5t-53 -21.5t-22.5 -56t22.5 -56t53 -21.5z" />
<glyph unicode="&#xc6;" horiz-adv-x="1607" d="M1026 139h494v-139h-646l-65 457h-453l-206 -457h-175l648 1389h839v-140h-608l70 -463h506v-139h-486zM694 1225l-284 -637h378l-88 637h-6z" />
<glyph unicode="&#xcb;" horiz-adv-x="1005" d="M328 139h585v-139h-757v1389h739v-140h-567v-463h497v-139h-497v-508zM737 1475q-41 0 -68.5 28.5t-27.5 67.5t27.5 67.5t68.5 28.5t69 -28.5t28 -67.5t-28 -67.5t-69 -28.5zM381 1475q-41 0 -68.5 28.5t-27.5 67.5t27.5 67.5t68.5 28.5t68.5 -28.5t27.5 -67.5 t-27.5 -67.5t-68.5 -28.5z" />
<glyph unicode="&#xcf;" horiz-adv-x="450" d="M311 0v1389h-172v-1389h172zM403.5 1475q-38.5 0 -67.5 28.5t-29 67.5t29 67.5t67.5 28.5t67.5 -28.5t29 -67.5t-29 -67.5t-67.5 -28.5zM47 1475q-39 0 -67.5 28.5t-28.5 67.5t28.5 67.5t67.5 28.5t67.5 -28.5t28.5 -67.5t-28.5 -67.5t-67.5 -28.5z" />
<glyph unicode="&#xd6;" horiz-adv-x="1499" d="M749.5 1409q286.5 0 479 -194.5t192.5 -520t-192.5 -520t-479 -194.5t-479 194.5t-192.5 520t192.5 520t479 194.5zM750 1270q-213 0 -348.5 -152.5t-135.5 -423t135.5 -423t348.5 -152.5t348 152.5t135 423t-135 423t-348 152.5zM928 1475q-39 0 -68 28.5t-29 67.5 t29 67.5t68 28.5t67.5 -28.5t28.5 -67.5t-28.5 -67.5t-67.5 -28.5zM571 1475q-39 0 -67.5 28.5t-28.5 67.5t28.5 67.5t67.5 28.5t68 -28.5t29 -67.5t-29 -67.5t-68 -28.5z" />
<glyph unicode="&#xd8;" horiz-adv-x="1499" d="M1237 1206q184 -201 184 -512q0 -326 -192.5 -520t-478.5 -194q-225 0 -398 124l-131 -163l-96 75l135 168q-182 199 -182 510q0 326 192.5 520.5t479.5 194.5q221 0 395 -123l129 162l94 -78zM266 694q0 -229 101 -375h4l678 846v4q-127 100 -299 101 q-213 0 -348.5 -153t-135.5 -423zM750 119q213 0 348 152.5t135 422.5q0 229 -100 379h-5l-675 -844v-6q123 -104 297 -104z" />
<glyph unicode="&#xdc;" horiz-adv-x="1251" d="M1114 477q0 -240 -136 -368.5t-349 -128.5q-211 0 -348.5 122.5t-137.5 335.5v951h172v-930q0 -168 84 -254t234 -86q322 0 321 340v930h160v-912zM817 1475q-39 0 -67.5 28.5t-28.5 67.5t28.5 67.5t67.5 28.5t67.5 -28.5t28.5 -67.5t-28.5 -67.5t-67.5 -28.5zM461 1475 q-39 0 -67.5 28.5t-28.5 67.5t28.5 67.5t67.5 28.5t67.5 -28.5t28.5 -67.5t-28.5 -67.5t-67.5 -28.5z" />
<glyph unicode="&#xe4;" horiz-adv-x="1021" d="M514 1012q174 0 268.5 -87t94.5 -253v-672h-166l-6 154h-5q-41 -80 -117.5 -127t-174.5 -47q-127 0 -218.5 85t-91.5 230q0 160 124 251t319 91q94 0 164 -12v28q0 227 -216 228q-119 0 -266 -58l-16 131q149 58 307 58zM705 426v86q-82 12 -138 12q-285 0 -284 -217 q0 -90 48 -143t128 -53q111 0 178.5 85t67.5 230zM702.5 1147q-38.5 0 -67.5 28.5t-29 67.5t29 67.5t67.5 28.5t67.5 -28.5t29 -67.5t-29 -67.5t-67.5 -28.5zM346 1147q-39 0 -67.5 28.5t-28.5 67.5t28.5 67.5t67.5 28.5t67.5 -28.5t28.5 -67.5t-28.5 -67.5t-67.5 -28.5z " />
<glyph unicode="&#xe5;" horiz-adv-x="1011" d="M504 1012q174 0 268 -87t94 -253v-672h-166l-6 154h-4q-41 -80 -117.5 -127t-175.5 -47q-127 0 -218 85t-91 230q0 160 124 251t318 91q92 0 164 -12v28q0 227 -215 228q-119 0 -266 -58l-16 131q149 58 307 58zM694 426v86q-82 12 -137 12q-285 0 -285 -217 q0 -90 48.5 -143t128.5 -53q111 0 178 85t67 230zM510 1403q68 0 116 -44t48 -111.5t-48 -111.5t-116 -44t-116 44t-48 111.5t48 111.5t116 44zM510 1169q31 0 53.5 21.5t22.5 56.5t-22.5 56.5t-53.5 21.5t-53.5 -21.5t-22.5 -56.5t22.5 -56.5t53.5 -21.5z" />
<glyph unicode="&#xe6;" horiz-adv-x="1630" d="M827 854h7q131 158 335 158q180 0 279.5 -129t99.5 -328q0 -43 -6 -98h-670q2 -166 91.5 -256t240.5 -90q131 0 250 57l16 -131q-141 -57 -290 -57q-285 0 -410 213h-4q-45 -92 -136 -152.5t-227 -60.5q-127 0 -221 85t-94 230q0 158 127 250t322 92q94 0 163 -12v28 q0 227 -215 228q-119 0 -266 -58l-16 131q150 57 307 58q233 0 317 -158zM700 426v86q-82 12 -137 12q-145 0 -218 -57t-73 -160q0 -90 51.5 -143t131.5 -53q111 0 178 85t67 230zM881 592h497q0 119 -58 204t-165 85q-111 0 -183.5 -78t-90.5 -211z" />
<glyph unicode="&#xeb;" horiz-adv-x="1040" d="M952 555q0 -43 -6 -98h-690q2 -166 91 -256t240.5 -90t270.5 57l16 -131q-141 -57 -311 -57q-217 0 -348 126.5t-131 370.5q0 229 136 382t343 153q184 0 286.5 -129t102.5 -328zM264 592h518q0 127 -61.5 208t-171.5 81q-121 0 -194 -77t-91 -212zM735 1147 q-39 0 -67.5 28.5t-28.5 67.5t28.5 67.5t67.5 28.5t67.5 -28.5t28.5 -67.5t-28.5 -67.5t-67.5 -28.5zM379 1147q-39 0 -67.5 28.5t-28.5 67.5t28.5 67.5t67.5 28.5t67.5 -28.5t28.5 -67.5t-28.5 -67.5t-67.5 -28.5z" />
<glyph unicode="&#xef;" horiz-adv-x="450" d="M139 0v991h172v-991h-172zM403.5 1147q-38.5 0 -67.5 28.5t-29 67.5t29 67.5t67.5 28.5t67.5 -28.5t29 -67.5t-29 -67.5t-67.5 -28.5zM47 1147q-39 0 -67.5 28.5t-28.5 67.5t28.5 67.5t67.5 28.5t67.5 -28.5t28.5 -67.5t-28.5 -67.5t-67.5 -28.5z" />
<glyph unicode="&#xf6;" horiz-adv-x="1122" d="M561 1012q219 0 348 -146.5t129 -370t-129 -369.5t-348 -146t-348 146t-129 369.5t129 370t348 146.5zM561.5 111q147.5 0 222 109.5t74.5 275.5t-74.5 275.5t-222 109.5t-222.5 -109.5t-75 -275.5t75 -275.5t222.5 -109.5zM737 1147q-41 0 -68.5 28.5t-27.5 67.5 t27.5 67.5t68.5 28.5t69 -28.5t28 -67.5t-28 -67.5t-69 -28.5zM381 1147q-41 0 -68.5 28.5t-27.5 67.5t27.5 67.5t68.5 28.5t68.5 -28.5t27.5 -67.5t-27.5 -67.5t-68.5 -28.5z" />
<glyph unicode="&#xf8;" horiz-adv-x="1122" d="M889 887q150 -143 149 -391q0 -223 -129 -369.5t-348 -146.5q-139 0 -242 59l-79 -123l-97 66l86 127q-145 145 -145 387q0 223 129 369.5t348 146.5q129 0 236 -56l77 117l97 -63zM264 496q0 -150 53 -256h7l393 596v6q-59 39 -156 39q-147 0 -222 -109.5t-75 -275.5z M561 111q147 0 222 109.5t75 275.5q0 147 -57 260h-6l-398 -598v-4q80 -43 164 -43z" />
<glyph unicode="&#xfc;" horiz-adv-x="1122" d="M795 164h-4q-125 -184 -324 -184q-322 0 -322 366v645h172v-592q0 -150 42 -215t157 -65q119 0 199 89t80 238v545h172v-991h-166zM745.5 1147q-40.5 0 -68.5 28.5t-28 67.5t28 67.5t68.5 28.5t68.5 -28.5t28 -67.5t-28 -67.5t-68.5 -28.5zM389 1147q-41 0 -68.5 28.5 t-27.5 67.5t27.5 67.5t68.5 28.5t68.5 -28.5t27.5 -67.5t-27.5 -67.5t-68.5 -28.5z" />
<glyph unicode="&#xff;" horiz-adv-x="985" d="M414 -18l-396 1009h185l182 -495q80 -215 115 -334h6q59 184 117 334l182 495h168l-400 -1011q-74 -182 -184 -275.5t-278 -126.5l-17 135q233 47 307 236zM692 1147q-41 0 -68.5 28.5t-27.5 67.5t27.5 67.5t68.5 28.5t68.5 -28.5t27.5 -67.5t-27.5 -67.5t-68.5 -28.5z M336 1147q-41 0 -68.5 28.5t-27.5 67.5t27.5 67.5t68.5 28.5t68.5 -28.5t27.5 -67.5t-27.5 -67.5t-68.5 -28.5z" />
<glyph unicode="&#x178;" horiz-adv-x="1089" d="M903 1389h184l-448 -785v-604h-172v590l-455 799h197l342 -641h6zM737 1475q-41 0 -68.5 28.5t-27.5 67.5t27.5 67.5t68.5 28.5t69 -28.5t28 -67.5t-28 -67.5t-69 -28.5zM381 1475q-41 0 -68.5 28.5t-27.5 67.5t27.5 67.5t68.5 28.5t68.5 -28.5t27.5 -67.5t-27.5 -67.5 t-68.5 -28.5z" />
<glyph unicode="&#x2000;" horiz-adv-x="874" />
<glyph unicode="&#x2001;" horiz-adv-x="1751" />
<glyph unicode="&#x2002;" horiz-adv-x="874" />
<glyph unicode="&#x2003;" horiz-adv-x="1751" />
<glyph unicode="&#x2004;" horiz-adv-x="583" />
<glyph unicode="&#x2005;" horiz-adv-x="436" />
<glyph unicode="&#x2006;" horiz-adv-x="290" />
<glyph unicode="&#x2007;" horiz-adv-x="290" />
<glyph unicode="&#x2008;" horiz-adv-x="217" />
<glyph unicode="&#x2009;" horiz-adv-x="350" />
<glyph unicode="&#x200a;" horiz-adv-x="96" />
<glyph unicode="&#x2010;" horiz-adv-x="759" d="M621 588v-127h-482v127h482z" />
<glyph unicode="&#x2011;" horiz-adv-x="759" d="M621 588v-127h-482v127h482z" />
<glyph unicode="&#x2012;" horiz-adv-x="759" d="M621 588v-127h-482v127h482z" />
<glyph unicode="&#x2013;" horiz-adv-x="1024" d="M885 588v-127h-746v127h746z" />
<glyph unicode="&#x2014;" horiz-adv-x="2048" d="M1909 588v-127h-1770v127h1770z" />
<glyph unicode="&#x2018;" horiz-adv-x="559" d="M326 979q-14 -55 -84 -55h-131q82 244 188 491l162 27q-94 -297 -135 -463z" />
<glyph unicode="&#x2019;" horiz-adv-x="559" d="M233 1386q14 55 84 56h132q-86 -260 -189 -492l-162 -26q76 239 135 462z" />
<glyph unicode="&#x201c;" horiz-adv-x="888" d="M655 979q-14 -55 -84 -55h-131q82 244 189 491l162 27q-95 -297 -136 -463zM326 979q-14 -55 -84 -55h-131q82 244 188 491l162 27q-94 -297 -135 -463z" />
<glyph unicode="&#x201d;" horiz-adv-x="905" d="M233 1386q14 55 84 56h132q-86 -260 -189 -492l-162 -26q76 239 135 462zM580 1386q14 55 84 56h131q-86 -260 -189 -492l-162 -26q77 239 136 462z" />
<glyph unicode="&#x202f;" horiz-adv-x="350" />
<glyph unicode="&#x205f;" horiz-adv-x="436" />
<glyph unicode="&#xe000;" horiz-adv-x="990" d="M0 990h990v-990h-990v990z" />
</font>
</defs>
</svg>
