<?xml version="1.0" standalone="no"?>
<!DOCTYPE svg PUBLIC "-//W3C//DTD SVG 1.1//EN" "http://www.w3.org/Graphics/SVG/1.1/DTD/svg11.dtd" >
<svg xmlns="http://www.w3.org/2000/svg">
<metadata>
This is a custom SVG webfont generated by Font Squirrel.
Copyright   : Generated in 2010 by FontLab Studio Copyright info pending
Designer    : Campivisivi
Foundry     : Campivisivi
</metadata>
<defs>
<font id="TitilliumText22L600wt" horiz-adv-x="1085" >
<font-face units-per-em="2048" ascent="1536" descent="-512" />
<missing-glyph horiz-adv-x="481" />
<glyph unicode=" "  horiz-adv-x="481" />
<glyph unicode="&#x09;" horiz-adv-x="481" />
<glyph unicode="&#xa0;" horiz-adv-x="481" />
<glyph unicode="!" d="M451 0v270h208v-270h-208zM457 494l-6 940h208l-6 -940h-196z" />
<glyph unicode="&#x22;" horiz-adv-x="665" d="M584 950h-178l-3 471h187zM262 950h-178l-2 471h186z" />
<glyph unicode="#" d="M1071 358h-217v-358h-172v358h-283v-358h-172v358h-215v164h215v316h-215v163h215v359h172v-359h283v359h172v-359h217v-163h-217v-316h217v-164zM682 522v316h-283v-316h283z" />
<glyph unicode="$" d="M971 1370l-15 -176q-145 18 -270 29l-55 -437q207 -57 287.5 -135t80.5 -250q0 -215 -120.5 -318t-339.5 -103h-11l-30 -238q-121 6 -121 14l29 232q-139 12 -291 39l20 176q158 -23 295 -31l57 455q-217 53 -308 138t-91 265q0 193 124 290t347 97h31l28 213h121 l-28 -223zM285 1034q0 -94 48 -137t179 -80l53 412h-6q-274 0 -274 -195zM805 395q0 84 -43 127t-156 76l-53 -430q129 4 190.5 57t61.5 170z" />
<glyph unicode="%" d="M838 584q240 0 239 -289q0 -293 -239 -293q-242 0 -242 293q0 289 242 289zM182 78l637 1349l111 -63l-639 -1350zM745 295q0 -88 19.5 -128t73 -40t72 39t18.5 129q0 88 -18.5 126t-72 38t-73 -38t-19.5 -126zM266 1436q240 0 240 -287q0 -293 -240 -293 q-242 0 -241 293q-1 287 241 287zM174 1149q0 -88 19.5 -128t72.5 -40q51 0 70.5 40t19.5 128t-19.5 126t-70.5 38q-53 0 -72.5 -38t-19.5 -126z" />
<glyph unicode="&#x26;" horiz-adv-x="1433" d="M662 1446q186 0 281 -87t95 -247q0 -139 -67.5 -225t-231.5 -178l250 -250q37 117 55 262l189 -4q-31 -223 -94 -381l252 -240l-117 -133l-234 217q-100 -115 -207.5 -165t-263.5 -50q-238 0 -360.5 117t-122.5 332q0 158 78 255t227 160q-63 80 -83.5 140.5t-20.5 156.5 q0 147 99.5 233.5t275.5 86.5zM575 145q102 0 176 36t144 120l-383 393q-227 -86 -227 -278q0 -129 74.5 -200t215.5 -71zM481 1102q0 -127 90 -223l47 -48q123 61 173.5 117t50.5 146q0 172 -180.5 172t-180.5 -164z" />
<glyph unicode="'" horiz-adv-x="204" d="M4 940l-4 479h190l-10 -479h-176z" />
<glyph unicode="(" horiz-adv-x="532" d="M250 1536h209q-23 -59 -54.5 -158.5t-86 -344.5t-54.5 -417q0 -342 178 -829l17 -43h-209q-23 51 -55.5 139t-88 319.5t-55.5 414t50.5 411.5t99.5 369z" />
<glyph unicode=")" horiz-adv-x="532" d="M51 1536h209q23 -55 55.5 -147.5t88 -331t55.5 -420.5t-49.5 -405.5t-98.5 -354.5l-51 -133h-209q23 57 54.5 152.5t86 333t54.5 407.5q0 172 -49.5 396t-98.5 364z" />
<glyph unicode="*" d="M913 1038h-264l82 -254l-117 -34l-84 256l-217 -162l-73 94l219 162l-213 155l71 99l213 -152l84 250l119 -39l-82 -256h262v-119z" />
<glyph unicode="+" horiz-adv-x="987" d="M-20 475v176h421v422h181v-422h426v-176h-426v-426h-181v426h-421z" />
<glyph unicode="," horiz-adv-x="348" d="M31 -252l98 492h211l-117 -492h-192z" />
<glyph unicode="-" horiz-adv-x="901" d="M135 481v189h631v-189h-631z" />
<glyph unicode="." horiz-adv-x="507" d="M135 0v270h211v-270h-211z" />
<glyph unicode="/" d="M158 35l575 1425l185 -65l-576 -1426z" />
<glyph unicode="0" d="M541 1374q254 0 380 -161.5t126 -553.5q0 -371 -127 -526.5t-379 -155.5t-378 155t-126 527q0 389 126 552t378 163zM542.5 1184q-157.5 0 -225 -113t-67.5 -414q0 -283 68.5 -386t224 -103t223.5 104.5t68 386.5q0 299 -67 412t-224.5 113z" />
<glyph unicode="1" d="M109 1063l432 289h186v-1352h-199v1122l-327 -217z" />
<glyph unicode="2" d="M981 0h-868v182l354 363q106 109 152.5 161t86 126.5t39.5 146.5q0 106 -65.5 152.5t-204.5 46.5q-66 0 -150.5 -9.5t-136.5 -19.5l-51 -10l-14 182q205 53 395 53q221 0 326.5 -90t105.5 -280q0 -145 -61.5 -252t-216.5 -263l-293 -299h602v-190z" />
<glyph unicode="3" d="M119 1325q219 49 399 49q244 0 345.5 -86t101.5 -272q0 -53 -16.5 -101.5t-30 -74t-52.5 -58t-44 -36l-44 -29.5q111 -45 164 -112.5t53 -211.5q0 -211 -107.5 -313.5t-338.5 -102.5q-209 0 -451 50l23 180q223 -37 403 -37q266 2 267 217q0 203 -252 211h-273v182h273 q78 0 149.5 62.5t71.5 146.5q0 104 -61.5 148.5t-190.5 44.5q-80 0 -172 -8.5t-143 -16.5l-54 -8z" />
<glyph unicode="4" d="M686 -12v245h-633v164l371 955h219l-362 -928h405v424h199v-424h155v-191h-155v-245h-199z" />
<glyph unicode="5" d="M156 1354h800v-193h-620l-35 -370q150 63 264 63q217 0 329 -97.5t112 -312.5q0 -225 -120 -344.5t-337 -119.5q-209 0 -459 59l23 180q252 -49 430 -49q117 0 187.5 69.5t70.5 194.5q0 233 -254 234q-66 0 -134.5 -16.5t-105.5 -33.5l-37 -14l-157 33z" />
<glyph unicode="6" d="M983 1339l-18 -182q-193 27 -365 27q-164 0 -249 -102.5t-85 -299.5l49 17q47 16 126 34.5t137 18.5q459 0 458 -424q0 -219 -126 -335t-355 -116q-494 0 -494 701q0 369 139.5 532.5t399.5 163.5zM563 670q-141 -6 -299 -62q4 -442 291 -442q274 0 274 262 q0 242 -266 242z" />
<glyph unicode="7" d="M109 1161v193h847v-248l-512 -1135l-186 56l494 1087v47h-643z" />
<glyph unicode="8" d="M549 1374q225 0 359 -91t134 -265q0 -123 -44 -188.5t-156 -127.5q113 -63 167 -134.5t54 -200.5q0 -106 -40 -184.5t-111.5 -121.5t-162 -63.5t-200.5 -20.5q-508 0 -508 367q0 141 51 216t162 142q-102 61 -146.5 131t-44.5 187q0 172 130.5 263t355.5 91zM549 168 q301 0 301 223q0 88 -51 136t-150 79h-205q-188 -57 -188 -221q0 -217 293 -217zM551 1184q-135 0 -205 -45t-70 -148q0 -78 41 -126t127 -83h205q90 35 134 84t44 125q0 102 -69.5 147.5t-206.5 45.5z" />
<glyph unicode="9" d="M106 14l19 179q193 -27 364 -27q334 0 338 399l-49 -16q-51 -14 -132 -30.5t-138 -16.5q-451 0 -451 422q0 213 129 331.5t349 118.5q498 0 497 -698q0 -379 -137 -539t-406 -160q-76 0 -172 9.5t-153 17.5zM524 684q57 0 134 15.5t124 29.5l47 16q-4 203 -75.5 323 t-218.5 120q-125 0 -199 -70.5t-74 -193.5q0 -240 262 -240z" />
<glyph unicode=":" horiz-adv-x="397" d="M106 637v270h209v-270h-209zM106 0v270h209v-270h-209z" />
<glyph unicode=";" horiz-adv-x="436" d="M35 -240l110 504h211l-141 -504h-180zM131 637v270h209v-270h-209z" />
<glyph unicode="&#x3c;" d="M840 940l-523 -303l523 -318v-204q-78 41 -357.5 209t-353.5 208v201l711 412v-205z" />
<glyph unicode="=" d="M59 690v178h949v-178h-949zM59 285v178h949v-178h-949z" />
<glyph unicode="&#x3e;" d="M651 637l-522 303v205l711 -412v-201q-74 -41 -353.5 -208.5t-357.5 -208.5v204z" />
<glyph unicode="?" horiz-adv-x="790" d="M801 1085q0 -98 -39 -180t-95.5 -133t-112.5 -95t-95 -91t-39 -94v-78h-205v84q0 74 39 136t93 107l110 90q55 45 94 103.5t39 128.5q0 106 -51.5 150t-186.5 44l-313 -45l-25 189q236 57 346 57q229 0 335 -85t106 -288zM213 0v270h209v-270h-209z" />
<glyph unicode="@" horiz-adv-x="2017" d="M1919 625v-35q0 -186 -24.5 -308t-76 -187.5t-115 -90t-155.5 -24.5q-94 0 -152.5 22.5t-95.5 81.5q-199 -102 -342 -102q-82 0 -143 21.5t-114.5 75.5t-82 158.5t-28.5 258.5q0 274 89 410t318 136l224 -49v31h192v-410q0 -213 12.5 -306t38 -118.5t84.5 -25.5 q63 0 97 25.5t55.5 121t21.5 279.5v37q0 358 -160.5 514.5t-529.5 156.5q-373 0 -555 -184t-182 -579q0 -422 170 -595t567 -173l293 20l8 -186q-203 -20 -301 -21q-238 0 -403.5 46t-288.5 153.5t-182.5 294t-59.5 461.5q0 950 934 950q455 0 671 -214t216 -646zM973 170 q111 0 264 68q-16 98 -16 303v284q-115 35 -187 35q-147 0 -197.5 -81t-50.5 -285q0 -186 50.5 -255t136.5 -69z" />
<glyph unicode="A" horiz-adv-x="1239" d="M53 0l365 1421h407l361 -1419h-201l-92 317h-553l-88 -319h-199zM569 1237l-186 -727h469l-182 727h-101z" />
<glyph unicode="B" horiz-adv-x="1257" d="M170 1421h522q426 0 426 -354q0 -139 -41 -215t-131 -123q104 -39 157.5 -113.5t53.5 -216.5q0 -399 -444 -399h-543v1421zM698 627h-331v-443h338q121 0 184 53.5t63 176.5q0 213 -254 213zM684 1237h-317v-430h327q221 0 221 229q0 106 -56 153.5t-175 47.5z" />
<glyph unicode="C" horiz-adv-x="1095" d="M1010 207l6 -180q-233 -49 -395 -50q-158 0 -262.5 45.5t-161 143.5t-79 225t-22.5 318q0 389 113 562t412 173q82 0 180 -13.5t157 -25.5l58 -12l-6 -179q-231 35 -365 35q-205 0 -273.5 -119.5t-68.5 -420.5q0 -299 67.5 -418t278.5 -119z" />
<glyph unicode="D" horiz-adv-x="1304" d="M662 0h-492v1421h492q309 0 427.5 -171t118.5 -515q0 -174 -23.5 -299t-82 -228.5t-168.5 -155.5t-272 -52zM1004 735q0 248 -71 373t-271 125h-295v-1045h295q104 0 174.5 42t105.5 122t48.5 170t13.5 213z" />
<glyph unicode="E" horiz-adv-x="1148" d="M170 0v1421h874v-190h-677v-426h555v-187h-555v-428h677v-190h-874z" />
<glyph unicode="F" horiz-adv-x="1122" d="M170 0v1421h874v-190h-677v-504h555v-188h-555v-539h-197z" />
<glyph unicode="G" horiz-adv-x="1236" d="M725 555v178h395v-706q-291 -49 -465 -50q-311 0 -434 181.5t-123 552.5q0 379 123 556t428 177q96 0 214 -14.5t188 -28.5l69 -15l-8 -174q-250 37 -436 37q-217 0 -295 -120.5t-78 -417.5t74 -419t293 -122q31 0 67.5 2t67.5 5t57.5 7l43 6.5t18.5 2.5v362h-199z" />
<glyph unicode="H" horiz-adv-x="1392" d="M1022 0v625h-653v-625h-199v1421h199v-606h653v606h201v-1421h-201z" />
<glyph unicode="I" horiz-adv-x="526" d="M164 0v1421h198v-1421h-198z" />
<glyph unicode="J" horiz-adv-x="634" d="M469 1421q0 -217 1 -596t1 -598q0 -121 -22.5 -195.5t-77 -113.5t-123 -51t-182.5 -12v184q123 0 163.5 36t40.5 169v1177h199z" />
<glyph unicode="K" horiz-adv-x="1218" d="M920 0l-330 602l-221 -12v-590h-199v1421h199v-639l217 13l317 626h232l-371 -710l389 -711h-233z" />
<glyph unicode="L" horiz-adv-x="1032" d="M954 0h-784v1421h199v-1231h585v-190z" />
<glyph unicode="M" horiz-adv-x="1738" d="M170 0v1421h334l366 -1138l369 1138h330v-1421h-199v1180h-31l-364 -1127h-211l-365 1127h-30v-1180h-199z" />
<glyph unicode="N" horiz-adv-x="1423" d="M170 0v1421h336l508 -1179h41v1179h198v-1421h-327l-516 1180h-41v-1180h-199z" />
<glyph unicode="O" horiz-adv-x="1329" d="M664 170q213 0 286.5 122t73.5 410q0 285 -76 417t-284.5 132t-284.5 -132t-76 -416.5t75 -408.5t286 -124zM664 -23q-315 0 -440.5 175.5t-125.5 550t126 558t440 183.5q315 0 441 -183.5t126 -558.5q0 -379 -124 -552t-443 -173z" />
<glyph unicode="P" horiz-adv-x="1230" d="M686 453h-317v-453h-199v1421h516q467 0 467 -469q0 -242 -117 -370.5t-350 -128.5zM369 643h317q264 0 264 309q0 143 -63.5 211t-200.5 68h-317v-588z" />
<glyph unicode="Q" horiz-adv-x="1329" d="M991 -305l-182 297q-76 -14 -145 -15q-315 0 -440.5 175.5t-125.5 550t126 558t440 183.5q315 0 441 -183.5t126 -558.5q0 -252 -52.5 -408.5t-172.5 -234.5l170 -278zM664 170q213 0 286.5 122t73.5 410q0 285 -76 417t-284.5 132t-284.5 -132t-76 -416.5t75 -408.5 t286 -124z" />
<glyph unicode="R" horiz-adv-x="1269" d="M954 0l-227 512h-358v-512h-199v1421h530q238 0 351.5 -106.5t113.5 -337.5q0 -315 -241 -412l250 -565h-220zM961 973q0 260 -261 260h-331v-533h333q259 1 259 273z" />
<glyph unicode="S" horiz-adv-x="1089" d="M981 1399l-16 -180q-287 35 -406 34q-279 0 -278 -198q0 -109 65.5 -153t259.5 -91q227 -59 315.5 -140t88.5 -261q0 -219 -124 -324.5t-347 -105.5q-68 0 -176.5 12t-182.5 24l-74 11l21 180q264 -35 410 -35q141 0 207.5 54.5t66.5 176.5q0 98 -61.5 144.5t-231.5 85.5 q-240 55 -339 142t-99 276q0 197 126 296t353 99z" />
<glyph unicode="T" horiz-adv-x="999" d="M-12 1231v190h1024v-190h-410v-1231h-201v1231h-413z" />
<glyph unicode="U" horiz-adv-x="1310" d="M346 442q0 -145 79 -205.5t226 -60.5q152 0 232 61.5t80 204.5v979h200v-979q0 -244 -128 -352t-384 -108q-250 0 -377 109.5t-127 350.5v979h199v-979z" />
<glyph unicode="V" horiz-adv-x="1226" d="M967 1421h207l-355 -1421h-409l-357 1421h207l303 -1231h103z" />
<glyph unicode="W" horiz-adv-x="1869" d="M66 1421h206l246 -1218h49l256 1210h226l258 -1210h49l241 1218h207l-307 -1421h-330l-233 1124l-225 -1124h-332z" />
<glyph unicode="X" horiz-adv-x="1189" d="M274 1421l322 -563l319 563h224l-408 -716l408 -705h-224l-319 555l-322 -555h-223l414 705l-414 716h223z" />
<glyph unicode="Y" horiz-adv-x="1144" d="M674 608v-608h-199v608l-442 813h221l319 -590l316 590h223z" />
<glyph unicode="Z" horiz-adv-x="1167" d="M123 1231v190h921v-221l-673 -973v-37h673v-190h-921v219l674 973v39h-674z" />
<glyph unicode="[" horiz-adv-x="614" d="M535 1534v-188h-263v-1409h263v-189h-459l-2 1786h461z" />
<glyph unicode="\" horiz-adv-x="1107" d="M969 45l-211 -90l-637 1423l213 95z" />
<glyph unicode="]" horiz-adv-x="614" d="M74 1346v188h461l-3 -1786h-458v189h262v1409h-262z" />
<glyph unicode="^" d="M803 657l-262 502l-262 -502h-205l362 695h203l371 -695h-207z" />
<glyph unicode="_" horiz-adv-x="1064" d="M55 -10h877v-176h-877v176z" />
<glyph unicode="`" horiz-adv-x="505" d="M49 1552l473 -192l-57 -152l-479 172z" />
<glyph unicode="a" horiz-adv-x="1073" d="M903 707v-463q2 -49 26.5 -70.5t74.5 -28.5l-7 -165q-104 0 -159.5 16t-100.5 57q-178 -76 -356 -76q-137 0 -212 84t-75 238q0 152 80 222.5t248 84.5l287 25v74q0 156 -152 155q-68 0 -166 -6t-162 -12l-65 -6l-8 168q256 41 411 40q168 0 252 -79.5t84 -257.5z M709 479l-265 -20q-154 -12 -153 -156q0 -158 125 -158q131 0 293 52v282z" />
<glyph unicode="b" horiz-adv-x="1112" d="M633 1044q209 0 298 -117.5t89 -400.5q0 -311 -107.5 -430t-386.5 -119l-360 25v1456h192v-475q148 61 275 61zM526 154q180 0 237.5 81.5t57.5 290.5q0 184 -48 262t-163 78q-51 0 -113.5 -11t-99.5 -21l-39 -11v-659q121 -10 168 -10z" />
<glyph unicode="c" horiz-adv-x="892" d="M520 1044q45 0 119 -8t125 -16l51 -8l-8 -168q-162 18 -240 18q-164 0 -221 -72.5t-57 -263.5q0 -211 54 -287.5t226 -76.5l240 16l6 -168q-199 -33 -299 -33q-238 0 -331 124t-93 425q0 279 99.5 398.5t328.5 119.5z" />
<glyph unicode="d" horiz-adv-x="1118" d="M952 1434v-1434h-192v59q-152 -80 -289 -79q-190 0 -284.5 118.5t-94.5 413.5q0 276 101.5 404t324.5 128q37 0 91.5 -5t103.5 -11l47 -8v414h192zM498 158q119 2 262 59v633q-2 0 -46 6t-94.5 10t-89.5 4q-131 0 -186 -86t-55 -274q0 -201 53.5 -275.5t155.5 -76.5z" />
<glyph unicode="e" horiz-adv-x="1038" d="M537 156l376 18l5 -154q-233 -43 -408 -43q-225 2 -321.5 128t-96.5 399q0 541 436 540q215 0 319.5 -114.5t104.5 -358.5l-12 -141h-651q0 -141 57.5 -207.5t190.5 -66.5zM287 582h473q0 158 -53.5 224t-178.5 66q-121 0 -180 -68t-61 -222z" />
<glyph unicode="f" horiz-adv-x="690" d="M367 848v-848h-195v848h-123v174h123v80q0 217 62.5 297t222.5 80l215 -19l-2 -160q-106 4 -170 5q-78 0 -105.5 -43t-27.5 -162v-78h280v-174h-280z" />
<glyph unicode="g" horiz-adv-x="1073" d="M547 -492q-246 0 -352.5 68t-106.5 246q0 80 37 135t121 119q-63 41 -64 145q0 18 18.5 59.5t37.5 71.5l18 31q-156 82 -156 307q0 182 107.5 268t292.5 86l211 -26l303 6v-160h-166q53 -63 53 -174q0 -199 -97 -274.5t-310 -75.5q-53 0 -95 8q-31 -80 -30 -106 q0 -55 37.5 -69.5t193.5 -14.5q236 0 324 -62.5t88 -240.5q0 -347 -465 -347zM584 -10l-209 10q-53 -41 -73.5 -75t-20.5 -85q0 -86 58 -121.5t210 -35.5q137 0 201.5 37.5t64.5 123.5q0 92 -46 118t-185 28zM494 504q117 0 166 41t49 145q0 109 -47.5 149t-163.5 40 q-106 0 -154.5 -43t-48.5 -146q0 -98 45 -142t154 -44z" />
<glyph unicode="h" horiz-adv-x="1153" d="M358 0h-192v1475h192v-494q166 63 295 63q205 0 278 -115.5t73 -393.5v-535h-193v532q0 186 -37 259t-156 73l-260 -47v-817z" />
<glyph unicode="i" horiz-adv-x="505" d="M156 0v1022h194v-1022h-194zM156 1221v215h194v-215h-194z" />
<glyph unicode="j" horiz-adv-x="524" d="M174 12v1010h195v-1012q0 -195 -70 -291t-281 -202l-84 161q152 86 196 145.5t44 188.5zM174 1233v213h195v-213h-195z" />
<glyph unicode="k" horiz-adv-x="1032" d="M358 0h-192v1458h192v-840l140 13l270 391h219l-315 -475l323 -547h-219l-274 442l-144 -12v-430z" />
<glyph unicode="l" horiz-adv-x="514" d="M160 0v1458h194v-1458h-194z" />
<glyph unicode="m" horiz-adv-x="1757" d="M358 0h-192v1022h190v-61q104 59 219 73q42 7 80 8q15 0 29 -2q137 -6 209 -86q231 90 364 90q205 0 278 -112.5t73 -396.5v-535h-193v465q0 240 -32.5 319.5t-159.5 79.5q-53 0 -117 -15t-99.5 -29.5t-39.5 -18.5q20 -51 20 -271v-530h-192v526q0 197 -36 267.5 t-157 70.5q-113 0 -244 -61v-803z" />
<glyph unicode="n" horiz-adv-x="1159" d="M358 0h-192v1022h192v-59q168 82 295 81q207 0 280 -115.5t73 -393.5v-535h-195v532q0 186 -37 259t-153 73q-115 0 -263 -61v-803z" />
<glyph unicode="o" horiz-adv-x="1081" d="M543 1044q236 0 341 -131t105 -393q0 -274 -98 -408.5t-348 -134.5q-252 0 -351.5 132.5t-99.5 410.5q0 266 103.5 395t347.5 129zM543 154q150 0 200 85t50 281q0 184 -57.5 267t-192.5 83q-145 0 -199.5 -78.5t-54.5 -271.5q0 -201 51 -283.5t203 -82.5z" />
<glyph unicode="p" horiz-adv-x="1114" d="M166 -446v1468h192v-61q145 84 281 83q199 0 291 -121.5t92 -400.5q0 -303 -105.5 -424t-347.5 -121q-111 0 -211 23v-446h-192zM606 868q-49 0 -110.5 -16t-98.5 -33l-39 -18v-631q147 -16 199 -16q150 0 208 82.5t58 287.5q0 184 -54 264t-163 80z" />
<glyph unicode="q" horiz-adv-x="1099" d="M520 -23q-227 0 -327.5 131.5t-100.5 387.5q0 274 106.5 411t360.5 137l375 -22v-1471h-193v474q-92 -48 -221 -48zM559 870q-152 0 -212 -89t-60 -283q0 -172 55 -258t178 -86q113 0 221 53v655q-123 8 -182 8z" />
<glyph unicode="r" horiz-adv-x="733" d="M166 0v1022h192v-121q145 109 334 146v-205q-188 -37 -334 -125v-717h-192z" />
<glyph unicode="s" horiz-adv-x="1005" d="M864 1001l-4 -163q-236 33 -362 32q-98 0 -147.5 -29.5t-49.5 -101.5q0 -57 46 -82.5t188 -48.5q207 -33 284.5 -95t77.5 -210q0 -172 -103.5 -249t-299.5 -77q-61 0 -153.5 11.5t-156.5 21.5l-61 10l8 166q242 -33 346 -32q121 0 173 31.5t52 111.5q0 63 -43 88t-182 47 q-207 35 -289 94.5t-82 208.5q0 160 108 234.5t271 74.5q68 0 162 -10t156 -22z" />
<glyph unicode="t" horiz-adv-x="735" d="M678 848h-301v-447q0 -147 21.5 -194t105.5 -47l174 10l10 -168q-137 -25 -209 -25q-168 0 -231.5 80t-63.5 299v492h-137v174h137v307h193v-307h301v-174z" />
<glyph unicode="u" horiz-adv-x="1144" d="M786 1022h195v-1022h-195v59q-160 -82 -286 -82q-211 0 -280.5 112t-69.5 400v533h194v-530q0 -201 34 -269.5t157 -68.5q51 0 113.5 15t101.5 32l36 14v807z" />
<glyph unicode="v" horiz-adv-x="987" d="M39 1022h201l221 -860h67l224 860h198l-276 -1022h-361z" />
<glyph unicode="w" horiz-adv-x="1544" d="M45 1022h193l180 -848h39l213 830h204l213 -830h39l181 848h192l-227 -1022h-320l-182 743l-182 -743h-318z" />
<glyph unicode="x" horiz-adv-x="948" d="M43 1022h209l221 -371l223 371h207l-305 -512l305 -510h-209l-221 371l-221 -371h-209l305 510z" />
<glyph unicode="y" horiz-adv-x="989" d="M39 1022h192l232 -836h61l234 836h192l-401 -1466h-193l121 444h-160z" />
<glyph unicode="z" horiz-adv-x="980" d="M111 850v174h759v-174l-526 -676h526v-174h-759v174l526 676h-526z" />
<glyph unicode="{" horiz-adv-x="649" d="M436 350q0 -33 -7 -118t-7 -121q0 -96 42 -138.5t163 -50.5l-2 -188q-217 8 -313.5 91t-96.5 265q0 43 7 135t7 115q0 84 -44 134t-156 83v164q115 29 157.5 77t42.5 132q0 27 -7 123t-7 137q0 188 95.5 270t314.5 90l2 -188q-121 -8 -163 -48t-42 -136q0 -35 7 -130.5 t7 -123.5q0 -125 -45 -185.5t-160 -97.5q113 -37 159 -102.5t46 -188.5z" />
<glyph unicode="|" d="M432 -332v1827h199v-1827h-199z" />
<glyph unicode="}" horiz-adv-x="649" d="M219 350q0 123 46 188.5t159 102.5q-115 37 -160 97.5t-45 185.5q0 29 7 124t7 130q0 96 -40.5 136t-163.5 48l2 188q219 -8 314 -90t95 -270q0 -41 -7 -137.5t-7 -122.5q0 -84 43 -132t158 -77v-164q-113 -33 -157 -83t-44 -134q0 -23 7 -115t7 -135q0 -182 -96 -265 t-313 -91l-2 188q123 8 163.5 50t40.5 139q0 41 -7 126.5t-7 112.5z" />
<glyph unicode="~" d="M942 780l16 -184q-12 -12 -32.5 -30.5t-79 -48.5t-113.5 -30q-61 0 -198.5 49.5t-178.5 49.5q-88 0 -211 -92l-18 184q12 12 34.5 30.5t85 48t120.5 29.5q59 0 194 -49t180 -49q78 0 201 92z" />
<glyph unicode="&#xa1;" d="M659 1022v-270h-208v270h208zM653 528l6 -940h-208l6 940h196z" />
<glyph unicode="&#xa2;" horiz-adv-x="894" d="M430 -162v232q-188 10 -277.5 110.5t-89.5 329.5q0 422 367 444v232h166v-238l188 -20l-6 -170q-178 12 -256 12q-145 0 -202.5 -56.5t-57.5 -203.5q0 -150 56.5 -203t211.5 -53l250 12l6 -170q-106 -14 -190 -20v-238h-166z" />
<glyph unicode="&#xa3;" d="M920 1364v-166q-168 20 -261 21q-84 0 -115.5 -48.5t-31.5 -181.5v-121h338v-170h-338v-528h295l154 33l30 -166l-166 -35l-669 -2v170h166v528h-136v170h136v131q0 225 86 309.5t247 84.5z" />
<glyph unicode="&#xa4;" d="M883 43l-148 145q-88 -53 -192.5 -53t-194.5 53l-145 -145l-133 133l145 146q-51 88 -51 192t51 195l-145 147l133 133l145 -147q90 53 194.5 53t192.5 -53l148 147l133 -133l-148 -147q53 -90 53.5 -194.5t-53.5 -192.5l148 -146zM399.5 372.5q59.5 -57.5 143.5 -57.5 t143 57.5t59 143.5t-59 143.5t-143 57.5t-143.5 -57.5t-59.5 -143.5t59.5 -143.5z" />
<glyph unicode="&#xa5;" horiz-adv-x="1105" d="M98 629v166h252l-336 557h222l319 -512l315 512h224l-334 -557h248v-166h-342l-11 -39v-98h353v-166h-353v-326h-198v326h-359v166h359v98l-11 39h-348z" />
<glyph unicode="&#xa6;" d="M430 1536h199v-811h-199v811zM430 475h199v-807h-199v807z" />
<glyph unicode="&#xa7;" d="M913 1284l-8 -158q-225 29 -323 29q-127 0 -180.5 -39t-53.5 -131q0 -80 60.5 -112.5t228.5 -67.5q180 -37 250.5 -96.5t70.5 -202.5q0 -74 -29.5 -152t-62.5 -125q76 -63 76 -209q0 -184 -99.5 -269t-307.5 -85q-59 0 -151.5 9.5t-154.5 19.5l-61 10l18 158 q223 -29 336 -29q233 0 234 172q0 82 -56.5 110.5t-236.5 67.5q-182 37 -259 101.5t-77 208.5q0 76 42 153.5t81 108.5q-90 68 -90 227q0 342 409 342zM551 647q-150 33 -172 43q-14 -20 -35.5 -70.5t-21.5 -93.5q0 -80 42 -113.5t152 -54.5q131 -29 201 -57 q12 16 29.5 71.5t17.5 106.5q0 78 -46 110.5t-167 57.5z" />
<glyph unicode="&#xa8;" horiz-adv-x="505" d="M-37 1268v213h187v-213h-187zM385 1268v213h184v-213h-184z" />
<glyph unicode="&#xa9;" d="M18 887q0 231 149.5 390t375.5 159q229 0 376.5 -160t147.5 -387q0 -231 -147.5 -388t-378.5 -157q-221 0 -372 158t-151 385zM123 889q0 -184 118.5 -311t299.5 -127q182 0 303 127t121 311t-121 313t-301 129q-178 0 -299 -129t-121 -313zM698 741v-151 q-66 -16 -151 -17q-137 0 -194.5 77t-57.5 245q0 156 58.5 232.5t193.5 76.5q41 0 79 -3t56 -5l18 -4l-2 -158q-68 14 -151 15q-98 0 -98 -154q0 -166 98 -166z" />
<glyph unicode="&#xaa;" horiz-adv-x="1060" d="M709 1169v-274q12 -41 75 -47l-4 -57q-66 2 -110 45q-129 -45 -244 -45q-63 0 -103 45t-40 118q0 143 153 156l209 14v47q0 66 -24.5 89.5t-81.5 23.5l-213 -14l-4 63q141 16 217 17q88 0 129 -42.5t41 -138.5zM645 1065l-199 -12q-51 -4 -73.5 -28t-22.5 -75 q0 -94 82 -94q41 0 94.5 8t85.5 17l33 10v174z" />
<glyph unicode="&#xab;" horiz-adv-x="1257" d="M596 686l-246 -178l246 -201v-201l-412 324v148l412 307v-199zM1112 686l-244 -178l244 -201v-201l-410 324v148l410 307v-199z" />
<glyph unicode="&#xac;" d="M115 725h854v-506h-189v318h-665v188z" />
<glyph unicode="&#xad;" horiz-adv-x="901" d="M135 481v189h631v-189h-631z" />
<glyph unicode="&#xae;" d="M-4 888.5q0 239.5 150.5 403.5t396 164t400.5 -164t155 -403q0 -236 -156 -401.5t-399 -165.5q-246 0 -396.5 163.5t-150.5 403zM98 889q0 -193 129 -330t315.5 -137t316.5 137t130 330q0 195 -130 331t-316 136q-188 0 -316.5 -135t-128.5 -332zM639 565l-92 232h-96 v-232h-146v645h230q125 0 186 -46t61 -152q0 -78 -21.5 -123t-74.5 -74l109 -250h-156zM449 1096v-187h100q92 0 92 95q0 92 -109 92h-83z" />
<glyph unicode="&#xaf;" horiz-adv-x="505" d="M-47 1290v168h620v-168h-620z" />
<glyph unicode="&#xb0;" d="M205 1155q0 131 82 213t213 82t213 -82t82 -213t-81 -212t-214 -81t-214 81t-81 212zM324 1155q0 -80 48 -129t128 -49t130 49t50 129t-50 130t-130 50t-128 -50t-48 -130z" />
<glyph unicode="&#xb1;" d="M66 639v178h389v258h180v-258h397v-178h-397v-254h-180v254h-389zM66 281h966v-179h-966v179z" />
<glyph unicode="&#xb2;" horiz-adv-x="542" d="M483 979h-442v139l170 158q100 88 100 149q0 59 -92 60l-168 -17l-6 150q131 20 221 20q113 0 162 -45t49 -147q0 -68 -28.5 -117t-92.5 -104l-108 -101h235v-145z" />
<glyph unicode="&#xb3;" horiz-adv-x="542" d="M57 1618q127 20 213 20q227 0 228 -174q0 -109 -76 -149q47 -16 68.5 -50t21.5 -106q0 -201 -227 -201l-236 19l8 141q121 -16 201 -16q88 0 88 67.5t-82 67.5h-133v133h131q27 0 47.5 19.5t20.5 48.5q0 57 -82 57l-182 -14z" />
<glyph unicode="&#xb4;" horiz-adv-x="548" d="M31 1362l473 190l67 -180l-479 -172z" />
<glyph unicode="&#xb5;" d="M141 -475v1499h193v-565q2 -180 38 -242.5t154 -62.5q49 0 112.5 15t102.5 32l37 14v807h195v-1022h-195v59q-160 -82 -286 -82q-102 0 -158 46v-498h-193z" />
<glyph unicode="&#x3bc;" d="M141 -475v1499h193v-565q2 -180 38 -242.5t154 -62.5q49 0 112.5 15t102.5 32l37 14v807h195v-1022h-195v59q-160 -82 -286 -82q-102 0 -158 46v-498h-193z" />
<glyph unicode="&#xb6;" d="M782 0v1280h-200v-1280h-170v664h-15q-168 0 -274.5 106.5t-106.5 276.5t107.5 278.5t275.5 108.5h676v-154h-123v-1280h-170z" />
<glyph unicode="&#xb7;" horiz-adv-x="507" d="M135 475v270h211v-270h-211z" />
<glyph unicode="&#xb8;" horiz-adv-x="1705" d="M1155 -260q0 -201 -203 -201q-39 0 -84 4t-69 8l-27 5l6 118q74 -4 123 -4q86 0 86 70q0 61 -86 61h-74v201h93v-94q125 -2 180 -36t55 -132z" />
<glyph unicode="&#xb9;" horiz-adv-x="542" d="M51 1470l211 148h148v-639h-160v463l-125 -84z" />
<glyph unicode="&#xba;" horiz-adv-x="1077" d="M530 1350q119 0 175.5 -66.5t56.5 -210.5q0 -283 -232 -282q-236 0 -235 282q-1 277 235 277zM530 856q88 0 125 50t37 167t-37 164t-125 47t-126.5 -48t-38.5 -163q0 -117 38.5 -167t126.5 -50z" />
<glyph unicode="&#xbb;" horiz-adv-x="1257" d="M907 508l-245 178v199l411 -307v-148l-411 -324v201zM389 508l-244 178v199l410 -307v-148l-410 -324v201z" />
<glyph unicode="&#xbf;" horiz-adv-x="790" d="M14 -63q0 98 39 180t95.5 133t112.5 95t95 91t39 94v78h205v-84q0 -74 -39 -136t-94 -107l-110 -91q-54 -45 -93 -103t-39 -128q0 -106 51.5 -150.5t186.5 -44.5l313 46l25 -189q-236 -57 -346 -57q-229 0 -335 85t-106 288zM602 1022v-270h-209v270h209z" />
<glyph unicode="&#xc0;" horiz-adv-x="1236" d="M57 0l365 1421h407l361 -1419h-201l-92 317h-553l-88 -319h-199zM573 1237l-186 -727h469l-182 727h-101zM385 1929l473 -192l-61 -160l-478 170z" />
<glyph unicode="&#xc1;" horiz-adv-x="1236" d="M57 0l365 1421h407l361 -1419h-201l-92 317h-553l-88 -319h-199zM573 1237l-186 -727h469l-182 727h-101zM354 1772l473 190l68 -180l-479 -172z" />
<glyph unicode="&#xc2;" horiz-adv-x="1236" d="M57 0l365 1421h407l361 -1419h-201l-92 317h-553l-88 -319h-199zM573 1237l-186 -727h469l-182 727h-101zM281 1614l260 319h155l262 -319h-210l-127 158l-129 -158h-211z" />
<glyph unicode="&#xc3;" horiz-adv-x="1236" d="M57 0l365 1421h409l359 -1419h-199l-94 317h-553l-86 -319h-201zM573 1237l-186 -727h471l-184 727h-101zM913 1907l43 -150q-10 -12 -29.5 -30.5t-69.5 -50t-91 -31.5q-53 0 -163.5 49t-141.5 49q-23 0 -62 -21.5t-67 -42.5l-27 -22l-43 147l33 32q20 19 72.5 52 t93.5 33q59 0 167.5 -48t133.5 -48q47 0 151 82z" />
<glyph unicode="&#xc4;" horiz-adv-x="1236" d="M57 0l365 1421h409l359 -1419h-199l-94 317h-553l-86 -319h-201zM573 1237l-186 -727h471l-184 727h-101zM356 1677v213h187v-213h-187zM778 1677v213h187v-213h-187z" />
<glyph unicode="&#xc5;" horiz-adv-x="1236" d="M889 1507q0 -82 -47 -139l348 -1366h-201l-92 317h-553l-88 -319h-199l351 1368q-45 57 -46 139q0 109 74 170.5t188.5 61.5t189.5 -63t75 -169zM573 1237l-186 -727h469l-182 727h-101zM516 1507q0 -70 72 -86h76q72 16 71 86q0 43 -29.5 67.5t-81 24.5t-80 -24.5 t-28.5 -67.5z" />
<glyph unicode="&#xc6;" horiz-adv-x="1839" d="M877 0v319h-488l-98 -319h-203l432 1421h1231v-190h-678v-412h555v-188h-555v-441h678v-190h-874zM662 1231l-222 -721h437l2 721h-217z" />
<glyph unicode="&#xc7;" horiz-adv-x="1099" d="M874 -260q0 -201 -202 -201q-39 0 -84 4t-72 8l-24 5l6 118q74 -4 123 -4q86 0 86 70q0 61 -86 61h-74v181q-260 18 -355.5 192t-95.5 535q0 389 113 562t412 173q82 0 180 -13.5t157 -25.5l58 -12l-6 -179q-231 35 -365 35q-205 0 -273.5 -119.5t-68.5 -420.5 q0 -299 67.5 -418t278.5 -119l361 35l6 -180q-217 -45 -377 -50v-69q125 -2 180 -36t55 -132z" />
<glyph unicode="&#xc8;" horiz-adv-x="1148" d="M170 0v1421h874v-190h-677v-426h555v-187h-555v-428h677v-190h-874zM397 1929l473 -192l-61 -160l-477 170z" />
<glyph unicode="&#xc9;" horiz-adv-x="1171" d="M176 0v1421h875v-190h-678v-426h555v-187h-555v-428h678v-190h-875zM362 1772l474 190l67 -180l-479 -172z" />
<glyph unicode="&#xca;" horiz-adv-x="1171" d="M176 0v1421h875v-190h-678v-426h555v-187h-555v-428h678v-190h-875zM293 1614l260 319h156l262 -319h-211l-127 158l-129 -158h-211z" />
<glyph unicode="&#xcb;" horiz-adv-x="1171" d="M176 0v1421h875v-190h-678v-426h555v-187h-555v-428h678v-190h-875zM326 1677v213h186v-213h-186zM748 1677v213h184v-213h-184z" />
<glyph unicode="&#xcc;" horiz-adv-x="526" d="M164 0v1421h198v-1421h-198zM8 1929l473 -192l-61 -160l-477 170z" />
<glyph unicode="&#xcd;" horiz-adv-x="526" d="M164 0v1421h198v-1421h-198zM10 1751l473 191l68 -181l-479 -172z" />
<glyph unicode="&#xce;" horiz-adv-x="526" d="M164 0v1421h198v-1421h-198zM-94 1628l270 285h176l271 -285h-222l-135 131l-135 -131h-225z" />
<glyph unicode="&#xcf;" horiz-adv-x="526" d="M164 0v1421h198v-1421h-198zM-43 1663v213h184v-213h-184zM389 1663v213h186v-213h-186z" />
<glyph unicode="&#xd0;" horiz-adv-x="1304" d="M41 608v191h129v622h492q309 0 427.5 -171t118.5 -515q0 -174 -23.5 -299t-82 -228.5t-169 -155.5t-271.5 -52h-492v608h-129zM1004 735q0 248 -71 373t-271 125h-295v-434h297v-191h-297v-420h295q104 0 174.5 42t105.5 122t48.5 170t13.5 213z" />
<glyph unicode="&#xd1;" horiz-adv-x="1406" d="M158 0v1421h336l507 -1179h39v1179h201v-1421h-328l-518 1180h-39v-1180h-198zM993 1907l43 -150q-10 -12 -29.5 -30.5t-70.5 -50t-92 -31.5q-51 0 -162 49t-141 49q-23 0 -62 -21.5t-65 -42.5l-29 -22l-43 147l33 32q20 19 72.5 52t93.5 33q59 0 167.5 -48t133.5 -48 q45 0 151 82z" />
<glyph unicode="&#xd2;" horiz-adv-x="1343" d="M672 170q213 0 286.5 122t73.5 410q0 285 -75.5 417t-284.5 132t-285 -132t-76 -416.5t75 -408.5t286 -124zM672 -23q-315 0 -440.5 175.5t-125.5 550t126 558t440 183.5q315 0 441 -183.5t126 -558.5q0 -379 -124 -552t-443 -173zM446 1929l474 -192l-62 -160l-477 170z " />
<glyph unicode="&#xd3;" horiz-adv-x="1343" d="M672 170q213 0 286.5 122t73.5 410q0 285 -75.5 417t-284.5 132t-285 -132t-76 -416.5t75 -408.5t286 -124zM672 -23q-315 0 -440.5 175.5t-125.5 550t126 558t440 183.5q315 0 441 -183.5t126 -558.5q0 -379 -124 -552t-443 -173zM383 1772l473 190l68 -180l-480 -172z " />
<glyph unicode="&#xd4;" horiz-adv-x="1343" d="M672 170q213 0 286.5 122t73.5 410q0 285 -75.5 417t-284.5 132t-285 -132t-76 -416.5t75 -408.5t286 -124zM672 -23q-315 0 -440.5 175.5t-125.5 550t126 558t440 183.5q315 0 441 -183.5t126 -558.5q0 -379 -124 -552t-443 -173zM330 1614l260 319h155l263 -319h-211 l-127 158l-129 -158h-211z" />
<glyph unicode="&#xd5;" horiz-adv-x="1343" d="M672 170q213 0 286.5 122t73.5 410q0 283 -76.5 416t-283.5 133q-209 0 -285 -132t-76 -416.5t75 -408.5t286 -124zM671.5 -23q-317.5 0 -441.5 175.5t-124 550t126 558t440 183.5q315 0 440 -183.5t125 -558.5q0 -379 -124 -552t-441.5 -173zM965 1907l43 -150 q-10 -12 -30 -30.5t-71 -50t-92 -31.5q-51 0 -161.5 49t-141.5 49q-23 0 -61.5 -21.5t-65.5 -42.5l-29 -22l-43 147l33 32q20 19 72.5 52t93.5 33q59 0 167.5 -48t133.5 -48q46 0 152 82z" />
<glyph unicode="&#xd6;" horiz-adv-x="1343" d="M672 170q213 0 286.5 122t73.5 410q0 283 -76.5 416t-283.5 133q-209 0 -285 -132t-76 -416.5t75 -408.5t286 -124zM671.5 -23q-317.5 0 -441.5 175.5t-124 550t126 558t440 183.5q315 0 440 -183.5t125 -558.5q0 -379 -124 -552t-441.5 -173zM360 1677v213h187v-213 h-187zM780 1677v213h187v-213h-187z" />
<glyph unicode="&#xd7;" horiz-adv-x="1333" d="M489 1081l373 -385l375 385l129 -127l-377 -383l379 -387l-129 -125l-377 383l-375 -383l-127 125l377 387l-377 383z" />
<glyph unicode="&#xd8;" horiz-adv-x="1329" d="M664 -23q-115 0 -215 27l-119 -254l-176 78l125 266q-180 158 -181 608q0 375 126 558.5t440 183.5q125 0 229 -33l113 238l180 -68l-127 -270q172 -166 172 -609q0 -379 -124 -552t-443 -173zM303 702q0 -289 72 -403l434 930q-63 23 -145 22q-209 0 -285 -132t-76 -417 zM664 170q213 0 286.5 122t73.5 410q0 270 -66 396l-426 -914q56 -14 132 -14z" />
<glyph unicode="&#xd9;" horiz-adv-x="1310" d="M346 442q0 -145 79 -205.5t226 -60.5q152 0 232 61.5t80 204.5v979h200v-979q0 -244 -128 -352t-384 -108q-250 0 -377 109.5t-127 350.5v979h199v-979zM248 1929l473 -192l-62 -160l-477 170z" />
<glyph unicode="&#xda;" horiz-adv-x="1314" d="M352 442q0 -145 79 -205.5t226 -60.5q152 0 232 61.5t80 204.5v979h200v-979q0 -244 -128 -352t-384 -108q-250 0 -376.5 109.5t-126.5 350.5v979h198v-979zM375 1772l473 190l67 -180l-479 -172z" />
<glyph unicode="&#xdb;" horiz-adv-x="1314" d="M352 442q0 -145 79 -205.5t226 -60.5q152 0 232 61.5t80 204.5v979h200v-979q0 -244 -128 -352t-384 -108q-250 0 -376.5 109.5t-126.5 350.5v979h198v-979zM322 1614l260 319h155l262 -319h-211l-126 158l-130 -158h-210z" />
<glyph unicode="&#xdc;" horiz-adv-x="1314" d="M352 442q0 -145 79 -205.5t226 -60.5q152 0 232 61.5t80 204.5v979h200v-979q0 -244 -128 -352t-384 -108q-250 0 -376.5 109.5t-126.5 350.5v979h198v-979zM401 1677v213h187v-213h-187zM823 1677v213h185v-213h-185z" />
<glyph unicode="&#xdd;" horiz-adv-x="1105" d="M655 608v-608h-198v608l-443 813h222l319 -590l315 590h224zM246 1772l473 190l67 -180l-479 -172z" />
<glyph unicode="&#xde;" horiz-adv-x="1155" d="M627 424q266 0 266 311q0 141 -64.5 209t-201.5 68h-316v-588h316zM627 231h-316v-231h-200v1421h200v-221h316q471 0 471 -465q0 -242 -119 -373t-352 -131z" />
<glyph unicode="&#xdf;" horiz-adv-x="1253" d="M358 0h-192v1102q0 205 101.5 291t322.5 86q227 0 324.5 -70t97.5 -231q0 -104 -41 -165t-127 -98q-82 -35 -105.5 -52t-23.5 -44q0 -29 31.5 -54.5t152.5 -86.5q156 -82 209 -133t53 -146q0 -238 -104.5 -327.5t-382.5 -89.5q-33 0 -85 8t-89 16l-35 8l8 156 q166 -8 201 -8q168 0 227.5 48t59.5 165q0 35 -42 68.5t-169 93.5q-139 68 -187.5 123t-48.5 141q0 82 39 129t127 84q80 35 105.5 67.5t25.5 83.5q0 76 -50 105.5t-171 29.5q-119 0 -175.5 -46t-56.5 -167v-1087z" />
<glyph unicode="&#xe0;" horiz-adv-x="1083" d="M881 707v-463q2 -49 26.5 -70.5t73.5 -28.5l-6 -165q-104 0 -159.5 16t-100.5 57q-178 -76 -357 -76q-137 0 -211.5 84t-74.5 238q0 152 79.5 222.5t247.5 84.5l287 25v74q0 156 -151 155q-68 0 -166.5 -6t-163.5 -12l-64 -6l-8 168q256 41 412 40q168 0 252 -79.5 t84 -257.5zM686 479l-264 -20q-154 -12 -154 -156q0 -158 125 -158q131 0 293 52v282zM279 1552l473 -192l-58 -152l-479 172z" />
<glyph unicode="&#xe1;" horiz-adv-x="1083" d="M881 707v-463q2 -49 26.5 -70.5t73.5 -28.5l-6 -165q-104 0 -159.5 16t-100.5 57q-178 -76 -357 -76q-137 0 -211.5 84t-74.5 238q0 152 79.5 222.5t247.5 84.5l287 25v74q0 156 -151 155q-68 0 -166.5 -6t-163.5 -12l-64 -6l-8 168q256 41 412 40q168 0 252 -79.5 t84 -257.5zM686 479l-264 -20q-154 -12 -154 -156q0 -158 125 -158q131 0 293 52v282zM221 1362l473 190l68 -180l-479 -172z" />
<glyph unicode="&#xe2;" horiz-adv-x="1083" d="M881 707v-463q2 -49 26.5 -70.5t73.5 -28.5l-6 -165q-104 0 -159.5 16t-100.5 57q-178 -76 -357 -76q-137 0 -211.5 84t-74.5 238q0 152 79.5 222.5t247.5 84.5l287 25v74q0 156 -151 155q-68 0 -166.5 -6t-163.5 -12l-64 -6l-8 168q256 41 412 40q168 0 252 -79.5 t84 -257.5zM686 479l-264 -20q-154 -12 -154 -156q0 -158 125 -158q131 0 293 52v282zM160 1204l260 320h155l263 -320h-211l-127 158l-129 -158h-211z" />
<glyph unicode="&#xe3;" horiz-adv-x="1083" d="M879 707v-463q2 -49 26.5 -70.5t75.5 -28.5l-8 -165q-102 0 -157.5 16t-100.5 57q-180 -76 -357 -76q-139 0 -212.5 84t-73.5 238q0 152 78.5 222.5t246.5 84.5l289 25v74q0 156 -151 155q-68 0 -166.5 -6t-163.5 -12l-64 -6l-8 168q256 41 410 40q170 0 253 -79.5 t83 -257.5zM686 479l-264 -20q-156 -12 -156 -156q0 -158 125 -158q133 0 295 52v282zM795 1497l43 -149q-10 -12 -30 -31t-71 -50.5t-92 -31.5q-51 0 -161.5 49t-141.5 49q-23 0 -61.5 -21.5t-67.5 -41.5l-27 -23l-43 148l33 31q20 19 72.5 52t93.5 33q59 0 167.5 -48 t133.5 -48q46 0 152 82z" />
<glyph unicode="&#xe4;" horiz-adv-x="1083" d="M879 707v-463q2 -49 26.5 -70.5t75.5 -28.5l-8 -165q-102 0 -157.5 16t-100.5 57q-180 -76 -357 -76q-139 0 -212.5 84t-73.5 238q0 152 78.5 222.5t246.5 84.5l289 25v74q0 156 -151 155q-68 0 -166.5 -6t-163.5 -12l-64 -6l-8 168q256 41 410 40q170 0 253 -79.5 t83 -257.5zM686 479l-264 -20q-156 -12 -156 -156q0 -158 125 -158q133 0 295 52v282zM209 1268v213h186v-213h-186zM631 1268v213h184v-213h-184z" />
<glyph unicode="&#xe5;" horiz-adv-x="1083" d="M881 707v-463q2 -49 26.5 -70.5t73.5 -28.5l-6 -165q-104 0 -159.5 16t-100.5 57q-178 -76 -357 -76q-137 0 -211.5 84t-74.5 238q0 152 79.5 222.5t247.5 84.5l287 25v74q0 156 -151 155q-68 0 -166.5 -6t-163.5 -12l-64 -6l-8 168q256 41 412 40q168 0 252 -79.5 t84 -257.5zM686 479l-264 -20q-154 -12 -154 -156q0 -158 125 -158q131 0 293 52v282zM303 1317q0 92 64.5 156.5t158.5 64.5q92 0 157 -64.5t65 -156.5q0 -94 -65 -157.5t-157 -63.5q-96 0 -159.5 63.5t-63.5 157.5zM438 1317q0 -39 25.5 -64.5t64.5 -25.5q35 0 60.5 25.5 t25.5 64.5q0 37 -25.5 62.5t-60.5 25.5q-39 0 -64.5 -25.5t-25.5 -62.5z" />
<glyph unicode="&#xe6;" horiz-adv-x="1695" d="M1165 156l377 18l4 -154q-233 -43 -407 -43q-203 0 -305 107l-60 -27q-178 -80 -379 -80q-139 0 -212.5 84t-73.5 238q0 164 86 229.5t280 81.5l250 21v74q0 76 -41 115.5t-113 39.5q-68 0 -165 -5t-160 -11l-66 -4l-8 170q254 35 410 34q201 0 272 -122q102 123 305 122 q213 0 317.5 -114.5t104.5 -358.5l-12 -141h-651q2 -141 58 -207.5t189 -66.5zM430 145q111 0 318 60q-27 100 -27 274l-260 -20q-80 -6 -118 -43t-38 -113q0 -158 125 -158zM918 582h471q0 158 -53.5 224t-176.5 66t-182 -69t-59 -221z" />
<glyph unicode="&#xe7;" horiz-adv-x="892" d="M776 -260q0 -201 -203 -201q-39 0 -84 4t-71 8l-25 5l6 118q74 -4 123 -4q86 0 86 70q0 61 -86 61h-73v181q-199 14 -278 139t-79 405q0 279 99.5 398.5t328.5 119.5q45 0 119 -8t125 -16l51 -8l-8 -168q-162 18 -240 18q-164 0 -221 -72.5t-57 -263.5q0 -211 54 -287.5 t226 -76.5l240 16l6 -168q-170 -29 -274 -33v-69q125 -2 180 -36t55 -132z" />
<glyph unicode="&#xe8;" horiz-adv-x="1026" d="M535 156l376 18l4 -154q-233 -43 -407 -43q-225 2 -321.5 128t-96.5 399q0 541 436 540q215 0 319.5 -114.5t104.5 -358.5l-12 -141h-651q0 -141 57.5 -207.5t190.5 -66.5zM285 582h473q0 158 -53.5 224t-178.5 66q-121 0 -180 -68t-61 -222zM268 1528l473 -193l-57 -151 l-479 172z" />
<glyph unicode="&#xe9;" horiz-adv-x="1026" d="M535 156l376 18l4 -154q-233 -43 -407 -43q-225 2 -321.5 128t-96.5 399q0 541 436 540q215 0 319.5 -114.5t104.5 -358.5l-12 -141h-651q0 -141 57.5 -207.5t190.5 -66.5zM285 582h473q0 158 -53.5 224t-178.5 66q-121 0 -180 -68t-61 -222zM279 1362l473 190l67 -180 l-479 -172z" />
<glyph unicode="&#xea;" horiz-adv-x="1026" d="M535 156l376 18l4 -154q-233 -43 -407 -43q-225 2 -321.5 128t-96.5 399q0 541 436 540q215 0 319.5 -114.5t104.5 -358.5l-12 -141h-651q0 -141 57.5 -207.5t190.5 -66.5zM285 582h473q0 158 -53.5 224t-178.5 66q-121 0 -180 -68t-61 -222zM201 1204l260 320h155 l263 -320h-211l-127 158l-129 -158h-211z" />
<glyph unicode="&#xeb;" horiz-adv-x="1026" d="M535 156l376 18l4 -154q-233 -43 -407 -43q-225 2 -321.5 128t-96.5 399q0 541 436 540q215 0 319.5 -114.5t104.5 -358.5l-12 -141h-651q0 -141 56.5 -207.5t191.5 -66.5zM285 582h473q0 158 -53.5 224t-178.5 66q-121 0 -180 -68t-61 -222zM221 1268v213h185v-213h-185 zM641 1268v213h186v-213h-186z" />
<glyph unicode="&#xec;" horiz-adv-x="534" d="M174 0v1022h195v-1022h-195zM51 1552l473 -192l-57 -152l-479 172z" />
<glyph unicode="&#xed;" horiz-adv-x="534" d="M45 1362l473 190l68 -180l-480 -172zM174 0v1022h195v-1022h-195z" />
<glyph unicode="&#xee;" horiz-adv-x="542" d="M174 0v1022h195v-1022h-195zM-76 1204l260 320h156l262 -320h-211l-127 158l-129 -158h-211z" />
<glyph unicode="&#xef;" horiz-adv-x="534" d="M-41 1268v213h186v-213h-186zM381 1268v213h186v-213h-186zM174 0v1022h195v-1022h-195z" />
<glyph unicode="&#xf0;" d="M317 1030l-84 115l144 104q-82 25 -205 51l33 166q195 -31 346 -86l201 148l82 -115l-136 -100q326 -184 326 -596q0 -389 -114.5 -562t-374.5 -173q-223 0 -344 123.5t-121 357.5q0 193 118.5 308.5t315.5 115.5q66 0 144.5 -16.5t123.5 -32.5l45 -17q-10 125 -74.5 214 t-207.5 157zM516 715q-111 0 -175.5 -72t-64.5 -180q0 -143 65 -222t194 -79q147 0 213.5 111.5t68.5 375.5q-154 66 -301 66z" />
<glyph unicode="&#xf1;" horiz-adv-x="1175" d="M371 0h-193v1022h193v-59q168 82 295 81q207 0 279.5 -115.5t72.5 -393.5v-535h-195v532q0 186 -36.5 259t-153.5 73q-115 0 -262 -61v-803zM903 1497l43 -149q-10 -12 -29.5 -31t-70.5 -50.5t-92 -31.5q-51 0 -162 49t-141 49q-23 0 -62 -21.5t-65 -41.5l-29 -23 l-43 148l33 31q20 19 72.5 52t93.5 33q59 0 167.5 -48t133.5 -48q45 0 151 82z" />
<glyph unicode="&#xf2;" horiz-adv-x="1081" d="M543 1044q236 0 341 -131t105 -393q0 -274 -98 -408.5t-348 -134.5q-252 0 -351.5 132.5t-99.5 410.5q0 266 103.5 395t347.5 129zM543 154q150 0 200 85t50 281q0 184 -57.5 267t-192.5 83q-145 0 -199.5 -78.5t-54.5 -271.5q0 -201 51 -283.5t203 -82.5zM336 1552 l473 -192l-57 -152l-480 172z" />
<glyph unicode="&#xf3;" horiz-adv-x="1081" d="M543 1044q236 0 341 -131t105 -393q0 -274 -98 -408.5t-348 -134.5q-252 0 -351.5 132.5t-99.5 410.5q0 266 103.5 395t347.5 129zM543 154q150 0 200 85t50 281q0 184 -57.5 267t-192.5 83q-145 0 -199.5 -78.5t-54.5 -271.5q0 -201 51 -283.5t203 -82.5zM262 1362 l473 190l68 -180l-479 -172z" />
<glyph unicode="&#xf4;" horiz-adv-x="1081" d="M543 1044q236 0 341 -131t105 -393q0 -274 -98 -408.5t-348 -134.5q-252 0 -351.5 132.5t-99.5 410.5q0 266 103.5 395t347.5 129zM543 154q150 0 200 85t50 281q0 184 -57.5 267t-192.5 83q-145 0 -199.5 -78.5t-54.5 -271.5q0 -201 51 -283.5t203 -82.5zM195 1204 l260 320h155l262 -320h-210l-127 158l-129 -158h-211z" />
<glyph unicode="&#xf5;" horiz-adv-x="1081" d="M543 1044q236 0 341 -131t105 -393q0 -274 -98 -408.5t-348 -134.5q-252 0 -351.5 132.5t-99.5 410.5q0 266 103.5 395t347.5 129zM543 154q150 0 200 85t50 281q0 184 -57.5 267t-192.5 83q-145 0 -199.5 -78.5t-54.5 -271.5q0 -201 51 -283.5t203 -82.5zM840 1497 l43 -149q-10 -12 -29.5 -31t-71 -50.5t-92.5 -31.5q-51 0 -161.5 49t-141.5 49q-23 0 -61.5 -21.5t-67.5 -41.5l-27 -23l-43 148l33 31q20 19 72.5 52t93.5 33q59 0 168 -48t133 -48q48 0 152 82z" />
<glyph unicode="&#xf6;" horiz-adv-x="1081" d="M543 1044q236 0 341 -131t105 -393q0 -274 -98 -408.5t-348 -134.5q-252 0 -351.5 132.5t-99.5 410.5q0 266 103.5 395t347.5 129zM543 154q150 0 200 85t50 281q0 184 -57.5 267t-192.5 83q-145 0 -199.5 -78.5t-54.5 -271.5q0 -201 51 -283.5t203 -82.5zM233 1268v213 h185v-213h-185zM653 1268v213h187v-213h-187z" />
<glyph unicode="&#xf7;" d="M160 678v215h114v65h437v-65h104v-215h-655zM395 170v227h195v-227h-195z" />
<glyph unicode="&#xf8;" horiz-adv-x="1081" d="M543 1044q80 0 137 -14l86 211l123 -45l-86 -213q186 -113 186 -463q0 -274 -98 -408.5t-348 -134.5q-72 0 -148 15l-88 -217l-123 45l90 217q-182 109 -182 483q0 266 103.5 395t347.5 129zM543 154q150 0 200 85t50 281q0 201 -70 283l-262 -643q37 -6 82 -6zM543 870 q-145 0 -199.5 -78.5t-54.5 -271.5q0 -229 67 -305l258 647q-26 8 -71 8z" />
<glyph unicode="&#xf9;" horiz-adv-x="1144" d="M299 1550l471 -190l-70 -172l-473 182zM786 1022h195v-1022h-195v59q-160 -82 -286 -82q-211 0 -280.5 112t-69.5 400v533h194v-530q0 -201 34 -269.5t157 -68.5q51 0 113.5 15t101.5 32l36 14v807z" />
<glyph unicode="&#xfa;" horiz-adv-x="1144" d="M786 1022h195v-1022h-195v59q-160 -82 -286 -82q-211 0 -280.5 112t-69.5 400v533h194v-530q0 -201 34 -269.5t157 -68.5q51 0 113.5 15t101.5 32l36 14v807zM291 1362l473 190l67 -180l-479 -172z" />
<glyph unicode="&#xfb;" horiz-adv-x="1144" d="M786 1022h195v-1022h-195v59q-160 -82 -286 -82q-211 0 -280.5 112t-69.5 400v533h194v-530q0 -201 34 -269.5t157 -68.5q51 0 113.5 15t101.5 32l36 14v807zM197 1204l260 320h155l262 -320h-210l-127 158l-129 -158h-211z" />
<glyph unicode="&#xfc;" horiz-adv-x="1144" d="M786 1022h195v-1022h-195v59q-160 -82 -286 -82q-211 0 -280.5 112t-69.5 400v533h194v-530q0 -201 34 -269.5t157 -68.5q51 0 113.5 15t101.5 32l36 14v807zM274 1268v213h187v-213h-187zM696 1268v213h185v-213h-185z" />
<glyph unicode="&#xfd;" horiz-adv-x="983" d="M25 1022h192l232 -836h61l233 836h193l-401 -1466h-193l121 444h-160zM256 1362l473 190l68 -180l-480 -172z" />
<glyph unicode="&#xfe;" horiz-adv-x="1101" d="M565 154q180 0 238.5 82.5t58.5 289.5q0 184 -48 262t-165 78q-49 0 -111.5 -11t-99.5 -21l-39 -11v-659q119 -10 166 -10zM672 1044q209 0 298 -117.5t89 -400.5q0 -311 -107.5 -430t-384.5 -119q-29 0 -90 4.5t-78 4.5v-432h-194v1904h194v-475q146 61 273 61z" />
<glyph unicode="&#xff;" horiz-adv-x="989" d="M39 1022h192l232 -836h61l234 836h192l-401 -1466h-193l121 444h-160zM195 1268v213h186v-213h-186zM616 1268v213h185v-213h-185z" />
<glyph unicode="&#x100;" horiz-adv-x="1239" d="M53 0l365 1421h407l361 -1419h-201l-92 317h-553l-88 -319h-199zM569 1237l-186 -727h469l-182 727h-101zM276 1655v168h662v-168h-662z" />
<glyph unicode="&#x101;" horiz-adv-x="1073" d="M903 707v-463q2 -49 26.5 -70.5t74.5 -28.5l-7 -165q-104 0 -159.5 16t-100.5 57q-178 -76 -356 -76q-137 0 -212 84t-75 238q0 152 80 222.5t248 84.5l287 25v74q0 156 -152 155q-68 0 -166 -6t-162 -12l-65 -6l-8 168q256 41 411 40q168 0 252 -79.5t84 -257.5z M709 479l-265 -20q-154 -12 -153 -156q0 -158 125 -158q131 0 293 52v282zM221 1290v168h621v-168h-621z" />
<glyph unicode="&#x102;" horiz-adv-x="1239" d="M53 0l365 1421h407l361 -1419h-201l-92 317h-553l-88 -319h-199zM569 1237l-186 -727h469l-182 727h-101zM276 1898h201q4 -55 43 -86.5t98 -31.5q61 0 101.5 31.5t42.5 86.5h199q-10 -127 -99.5 -204.5t-243 -77.5t-243 77.5t-99.5 204.5z" />
<glyph unicode="&#x103;" horiz-adv-x="1073" d="M903 707v-463q2 -49 26.5 -70.5t74.5 -28.5l-7 -165q-104 0 -159.5 16t-100.5 57q-178 -76 -356 -76q-137 0 -212 84t-75 238q0 152 80 222.5t248 84.5l287 25v74q0 156 -152 155q-68 0 -166 -6t-162 -12l-65 -6l-8 168q256 41 411 40q168 0 252 -79.5t84 -257.5z M709 479l-265 -20q-154 -12 -153 -156q0 -158 125 -158q131 0 293 52v282zM184 1511h201q4 -61 44 -97t108 -36q70 0 108.5 36t42.5 97h201q-10 -137 -101.5 -221t-251 -84t-251 84t-101.5 221z" />
<glyph unicode="&#x104;" horiz-adv-x="1239" d="M1200 -250l21 -160q-102 -20 -179 -20q-88 0 -143 50t-55 136q0 121 145 246h-4l-92 317h-553l-88 -319h-199l365 1421h407l361 -1419h-10q-131 -121 -132 -190q0 -31 17.5 -51.5t46.5 -20.5zM569 1237l-186 -727h469l-182 727h-101z" />
<glyph unicode="&#x105;" horiz-adv-x="1073" d="M985 -250l21 -160q-102 -20 -179 -20q-88 0 -143 50t-55 136q0 55 38 118t68.5 92.5t55.5 47.5q-29 14 -54 39q-178 -76 -356 -76q-137 0 -212 84t-75 238q0 152 80 222.5t248 84.5l287 25v74q0 156 -152 155q-68 0 -166 -6t-162 -12l-65 -6l-8 168q256 41 411 40 q168 0 252 -79.5t84 -257.5v-463q2 -49 26.5 -70.5t74.5 -28.5l-7 -165q-41 0 -59 2q-109 -109 -109 -170q0 -31 17.5 -51.5t46.5 -20.5zM709 479l-265 -20q-154 -12 -153 -156q0 -158 125 -158q131 0 293 52v282z" />
<glyph unicode="&#x106;" horiz-adv-x="1089" d="M1010 207l6 -180q-233 -49 -395 -50q-158 0 -262.5 45.5t-161 143.5t-79 225t-22.5 318q0 389 113 562t412 173q82 0 180 -13.5t157 -25.5l58 -12l-6 -179q-231 35 -365 35q-205 0 -273.5 -119.5t-68.5 -420.5q0 -299 67.5 -418t278.5 -119zM328 1751l473 191l67 -181 l-479 -172z" />
<glyph unicode="&#x107;" horiz-adv-x="892" d="M520 1044q45 0 119 -8t125 -16l51 -8l-8 -168q-162 18 -240 18q-164 0 -221 -72.5t-57 -263.5q0 -211 54 -287.5t226 -76.5l240 16l6 -168q-199 -33 -299 -33q-238 0 -331 124t-93 425q0 279 99.5 398.5t328.5 119.5zM219 1362l473 190l68 -180l-479 -172z" />
<glyph unicode="&#x108;" horiz-adv-x="1089" d="M1010 207l6 -180q-233 -49 -395 -50q-158 0 -262.5 45.5t-161 143.5t-79 225t-22.5 318q0 389 113 562t412 173q82 0 180 -13.5t157 -25.5l58 -12l-6 -179q-231 35 -365 35q-205 0 -273.5 -119.5t-68.5 -420.5q0 -299 67.5 -418t278.5 -119zM256 1624l270 285h176 l271 -285h-221l-136 131l-135 -131h-225z" />
<glyph unicode="&#x109;" horiz-adv-x="892" d="M520 1044q45 0 119 -8t125 -16l51 -8l-8 -168q-162 18 -240 18q-164 0 -221 -72.5t-57 -263.5q0 -211 54 -287.5t226 -76.5l240 16l6 -168q-199 -33 -299 -33q-238 0 -331 124t-93 425q0 279 99.5 398.5t328.5 119.5zM125 1204l260 320h156l262 -320h-211l-127 158 l-129 -158h-211z" />
<glyph unicode="&#x10a;" horiz-adv-x="1089" d="M1010 207l6 -180q-233 -49 -395 -50q-158 0 -262.5 45.5t-161 143.5t-79 225t-22.5 318q0 389 113 562t412 173q82 0 180 -13.5t157 -25.5l58 -12l-6 -179q-231 35 -365 35q-205 0 -273.5 -119.5t-68.5 -420.5q0 -299 67.5 -418t278.5 -119zM502 1647v211h192v-211h-192z " />
<glyph unicode="&#x10b;" horiz-adv-x="892" d="M520 1044q45 0 119 -8t125 -16l51 -8l-8 -168q-162 18 -240 18q-164 0 -221 -72.5t-57 -263.5q0 -211 54 -287.5t226 -76.5l240 16l6 -168q-199 -33 -299 -33q-238 0 -331 124t-93 425q0 279 99.5 398.5t328.5 119.5zM391 1212v211h193v-211h-193z" />
<glyph unicode="&#x10c;" horiz-adv-x="1089" d="M1010 207l6 -180q-233 -49 -395 -50q-158 0 -262.5 45.5t-161 143.5t-79 225t-22.5 318q0 389 113 562t412 173q82 0 180 -13.5t157 -25.5l58 -12l-6 -179q-231 35 -365 35q-205 0 -273.5 -119.5t-68.5 -420.5q0 -299 67.5 -418t278.5 -119zM971 1909l-271 -285h-174 l-272 285h223l137 -135l134 135h223z" />
<glyph unicode="&#x10d;" horiz-adv-x="892" d="M520 1044q45 0 119 -8t125 -16l51 -8l-8 -168q-162 18 -240 18q-164 0 -221 -72.5t-57 -263.5q0 -211 54 -287.5t226 -76.5l240 16l6 -168q-199 -33 -299 -33q-238 0 -331 124t-93 425q0 279 99.5 398.5t328.5 119.5zM410 1204l-258 320h210l130 -156l126 156h211 l-260 -320h-159z" />
<glyph unicode="&#x10e;" horiz-adv-x="1304" d="M662 0h-492v1421h492q309 0 427.5 -171t118.5 -515q0 -174 -23.5 -299t-82 -228.5t-168.5 -155.5t-272 -52zM1004 735q0 248 -71 373t-271 125h-295v-1045h295q104 0 174.5 42t105.5 122t48.5 170t13.5 213zM975 1909l-270 -285h-175l-272 285h223l137 -135l134 135h223z " />
<glyph unicode="&#x10f;" horiz-adv-x="1525" d="M952 1434v-1434h-192v59q-152 -80 -289 -79q-190 0 -284.5 118.5t-94.5 413.5q0 276 101.5 404t324.5 128q37 0 91.5 -5t103.5 -11l47 -8v414h192zM498 158q119 2 262 59v633q-2 0 -46 6t-94.5 10t-89.5 4q-131 0 -186 -86t-55 -274q0 -201 53.5 -275.5t155.5 -76.5z M1362 1423v-497h-188v497h188z" />
<glyph unicode="&#x110;" horiz-adv-x="1304" d="M41 614v191h129v616h492q309 0 427.5 -171t118.5 -515q0 -174 -23.5 -299t-82 -228.5t-169 -155.5t-271.5 -52h-492v614h-129zM1004 735q0 248 -71 373t-271 125h-295v-428h305v-191h-305v-426h295q104 0 174.5 42t105.5 122t48.5 170t13.5 213z" />
<glyph unicode="&#x111;" horiz-adv-x="1112" d="M342 1274v168h621v-168h-11v-1274h-192v59q-152 -80 -289 -79q-190 0 -284.5 118.5t-94.5 413.5q0 276 101.5 404t324.5 128q37 0 91.5 -5t103.5 -11l47 -8v254h-418zM498 158q119 2 262 59v633q-2 0 -46 6t-94.5 10t-89.5 4q-131 0 -186 -86t-55 -274 q0 -201 53.5 -275.5t155.5 -76.5z" />
<glyph unicode="&#x112;" horiz-adv-x="1148" d="M170 0v1421h874v-190h-677v-426h555v-187h-555v-428h677v-190h-874zM272 1667v168h662v-168h-662z" />
<glyph unicode="&#x113;" horiz-adv-x="1038" d="M537 156l376 18l5 -154q-233 -43 -408 -43q-225 2 -321.5 128t-96.5 399q0 541 436 540q215 0 319.5 -114.5t104.5 -358.5l-12 -141h-651q0 -141 57.5 -207.5t190.5 -66.5zM287 582h473q0 158 -53.5 224t-178.5 66q-121 0 -180 -68t-61 -222zM217 1290v168h621v-168h-621 z" />
<glyph unicode="&#x114;" horiz-adv-x="1148" d="M170 0v1421h874v-190h-677v-426h555v-187h-555v-428h677v-190h-874zM281 1901h200q4 -55 43 -88t99 -33q61 0 101 32.5t42 88.5h199q-10 -129 -99.5 -207t-243 -78t-242.5 78t-99 207z" />
<glyph unicode="&#x115;" horiz-adv-x="1038" d="M537 156l376 18l5 -154q-233 -43 -408 -43q-225 2 -321.5 128t-96.5 399q0 541 436 540q215 0 319.5 -114.5t104.5 -358.5l-12 -141h-651q0 -141 57.5 -207.5t190.5 -66.5zM287 582h473q0 158 -53.5 224t-178.5 66q-121 0 -180 -68t-61 -222zM174 1511h199q4 -61 44 -97 t109 -36q141 0 152 133h199q-10 -139 -100.5 -222t-250.5 -83q-162 0 -252 83t-100 222z" />
<glyph unicode="&#x116;" horiz-adv-x="1148" d="M170 0v1421h874v-190h-677v-426h555v-187h-555v-428h677v-190h-874zM518 1647v211h193v-211h-193z" />
<glyph unicode="&#x117;" horiz-adv-x="1038" d="M537 156l376 18l5 -154q-233 -43 -408 -43q-225 2 -321.5 128t-96.5 399q0 541 436 540q215 0 319.5 -114.5t104.5 -358.5l-12 -141h-651q0 -141 57.5 -207.5t190.5 -66.5zM287 582h473q0 158 -53.5 224t-178.5 66q-121 0 -180 -68t-61 -222zM422 1212v211h192v-211h-192 z" />
<glyph unicode="&#x118;" horiz-adv-x="1148" d="M170 0v1421h874v-190h-677v-426h555v-187h-555v-428h677v-190h-49q-127 -127 -127 -188q0 -31 17.5 -51.5t46.5 -20.5l92 10l20 -160q-102 -20 -178 -20q-88 0 -143 50t-55 136q0 121 143 244h-641z" />
<glyph unicode="&#x119;" horiz-adv-x="1038" d="M879 -244l20 -159q-102 -20 -178 -21q-88 0 -143.5 50t-55.5 136q0 106 119 222q-68 -6 -131 -7q-225 2 -321.5 128t-96.5 399q0 541 436 540q215 0 319.5 -114.5t104.5 -358.5l-12 -141h-651q0 -141 57 -207.5t191 -66.5l376 18l5 -154q-31 -6 -70 -12h6 q-131 -121 -131 -190q0 -31 17.5 -51.5t45.5 -20.5zM287 582h473q0 158 -53.5 224t-178.5 66q-121 0 -180 -68t-61 -222z" />
<glyph unicode="&#x11a;" horiz-adv-x="1148" d="M170 0v1421h874v-190h-677v-426h555v-187h-555v-428h677v-190h-874zM1008 1931l-271 -284h-174l-272 284h223l137 -135l133 135h224z" />
<glyph unicode="&#x11b;" horiz-adv-x="1038" d="M537 156l376 18l5 -154q-233 -43 -408 -43q-225 2 -321.5 128t-96.5 399q0 541 436 540q215 0 319.5 -114.5t104.5 -358.5l-12 -141h-651q0 -141 57.5 -207.5t190.5 -66.5zM287 582h473q0 158 -53.5 224t-178.5 66q-121 0 -180 -68t-61 -222zM438 1204l-258 320h211 l129 -156l127 156h211l-260 -320h-160z" />
<glyph unicode="&#x11c;" horiz-adv-x="1236" d="M725 555v178h395v-706q-291 -49 -465 -50q-311 0 -434 181.5t-123 552.5q0 379 123 556t428 177q96 0 214 -14.5t188 -28.5l69 -15l-8 -174q-250 37 -436 37q-217 0 -295 -120.5t-78 -417.5t74 -419t293 -122q31 0 67.5 2t67.5 5t57.5 7l43 6.5t18.5 2.5v362h-199z M291 1624l270 285h176l271 -285h-222l-135 131l-135 -131h-225z" />
<glyph unicode="&#x11d;" horiz-adv-x="1073" d="M547 -492q-246 0 -352.5 68t-106.5 246q0 80 37 135t121 119q-63 41 -64 145q0 18 18.5 59.5t37.5 71.5l18 31q-156 82 -156 307q0 182 107.5 268t292.5 86l211 -26l303 6v-160h-166q53 -63 53 -174q0 -199 -97 -274.5t-310 -75.5q-53 0 -95 8q-31 -80 -30 -106 q0 -55 37.5 -69.5t193.5 -14.5q236 0 324 -62.5t88 -240.5q0 -347 -465 -347zM584 -10l-209 10q-53 -41 -73.5 -75t-20.5 -85q0 -86 58 -121.5t210 -35.5q137 0 201.5 37.5t64.5 123.5q0 92 -46 118t-185 28zM494 504q117 0 166 41t49 145q0 109 -47.5 149t-163.5 40 q-106 0 -154.5 -43t-48.5 -146q0 -98 45 -142t154 -44zM199 1204l260 320h155l263 -320h-211l-127 158l-129 -158h-211z" />
<glyph unicode="&#x11e;" horiz-adv-x="1236" d="M725 555v178h395v-706q-291 -49 -465 -50q-311 0 -434 181.5t-123 552.5q0 379 123 556t428 177q96 0 214 -14.5t188 -28.5l69 -15l-8 -174q-250 37 -436 37q-217 0 -295 -120.5t-78 -417.5t74 -419t293 -122q31 0 67.5 2t67.5 5t57.5 7l43 6.5t18.5 2.5v362h-199z M317 1898h199q4 -55 43 -86.5t98 -31.5q61 0 101.5 31.5t42.5 86.5h200q-10 -127 -100 -204.5t-244 -77.5q-152 0 -241 77.5t-99 204.5z" />
<glyph unicode="&#x11f;" horiz-adv-x="1073" d="M547 -492q-246 0 -352.5 68t-106.5 246q0 80 37 135t121 119q-63 41 -64 145q0 18 18.5 59.5t37.5 71.5l18 31q-156 82 -156 307q0 182 107.5 268t292.5 86l211 -26l303 6v-160h-166q53 -63 53 -174q0 -199 -97 -274.5t-310 -75.5q-53 0 -95 8q-31 -80 -30 -106 q0 -55 37.5 -69.5t193.5 -14.5q236 0 324 -62.5t88 -240.5q0 -347 -465 -347zM584 -10l-209 10q-53 -41 -73.5 -75t-20.5 -85q0 -86 58 -121.5t210 -35.5q137 0 201.5 37.5t64.5 123.5q0 92 -46 118t-185 28zM494 504q117 0 166 41t49 145q0 109 -47.5 149t-163.5 40 q-106 0 -154.5 -43t-48.5 -146q0 -98 45 -142t154 -44zM186 1511h199q4 -61 44 -97t108 -36q72 0 109.5 35t41.5 98h201q-10 -139 -100.5 -222t-251.5 -83q-160 0 -250.5 83t-100.5 222z" />
<glyph unicode="&#x120;" horiz-adv-x="1236" d="M725 555v178h395v-706q-291 -49 -465 -50q-311 0 -434 181.5t-123 552.5q0 379 123 556t428 177q96 0 214 -14.5t188 -28.5l69 -15l-8 -174q-250 37 -436 37q-217 0 -295 -120.5t-78 -417.5t74 -419t293 -122q31 0 67.5 2t67.5 5t57.5 7l43 6.5t18.5 2.5v362h-199z M532 1659v211h195v-211h-195z" />
<glyph unicode="&#x121;" horiz-adv-x="1073" d="M547 -492q-246 0 -352.5 68t-106.5 246q0 80 37 135t121 119q-63 41 -64 145q0 18 18.5 59.5t37.5 71.5l18 31q-156 82 -156 307q0 182 107.5 268t292.5 86l211 -26l303 6v-160h-166q53 -63 53 -174q0 -199 -97 -274.5t-310 -75.5q-53 0 -95 8q-31 -80 -30 -106 q0 -55 37.5 -69.5t193.5 -14.5q236 0 324 -62.5t88 -240.5q0 -347 -465 -347zM584 -10l-209 10q-53 -41 -73.5 -75t-20.5 -85q0 -86 58 -121.5t210 -35.5q137 0 201.5 37.5t64.5 123.5q0 92 -46 118t-185 28zM494 504q117 0 166 41t49 145q0 109 -47.5 149t-163.5 40 q-106 0 -154.5 -43t-48.5 -146q0 -98 45 -142t154 -44zM440 1212v211h193v-211h-193z" />
<glyph unicode="&#x122;" horiz-adv-x="1236" d="M725 555v178h395v-706q-291 -49 -465 -50q-311 0 -434 181.5t-123 552.5q0 379 123 556t428 177q96 0 214 -14.5t188 -28.5l69 -15l-8 -174q-250 37 -436 37q-217 0 -295 -120.5t-78 -417.5t74 -419t293 -122q31 0 67.5 2t67.5 5t57.5 7l43 6.5t18.5 2.5v362h-199z M479 -600l88 442h189l-105 -442h-172z" />
<glyph unicode="&#x123;" horiz-adv-x="1073" d="M547 -492q-246 0 -352.5 68t-106.5 246q0 80 37 135t121 119q-63 41 -64 145q0 18 18.5 59.5t37.5 71.5l18 31q-156 82 -156 307q0 182 107.5 268t292.5 86l211 -26l303 6v-160h-166q53 -63 53 -174q0 -199 -97 -274.5t-310 -75.5q-53 0 -95 8q-31 -80 -30 -106 q0 -55 37.5 -69.5t193.5 -14.5q236 0 324 -62.5t88 -240.5q0 -347 -465 -347zM584 -10l-209 10q-53 -41 -73.5 -75t-20.5 -85q0 -86 58 -121.5t210 -35.5q137 0 201.5 37.5t64.5 123.5q0 92 -46 118t-185 28zM494 504q117 0 166 41t49 145q0 109 -47.5 149t-163.5 40 q-106 0 -154.5 -43t-48.5 -146q0 -98 45 -142t154 -44zM651 1645l-88 -443h-188l104 443h172z" />
<glyph unicode="&#x124;" horiz-adv-x="1384" d="M1022 0v625h-653v-625h-199v1421h199v-606h653v606h201v-1421h-201zM338 1616l270 285h176l271 -285h-221l-136 131l-135 -131h-225z" />
<glyph unicode="&#x125;" horiz-adv-x="1153" d="M358 0h-192v1475h192v-494q166 63 295 63q205 0 278 -115.5t73 -393.5v-535h-193v532q0 186 -37 259t-156 73l-260 -47v-817zM238 1569l260 319h155l262 -319h-210l-127 157l-129 -157h-211z" />
<glyph unicode="&#x126;" horiz-adv-x="1384" d="M29 1024v170h141v227h199v-227h653v227h201v-227h155v-170h-155v-1024h-201v625h-653v-625h-199v1024h-141zM369 815h653v209h-653v-209z" />
<glyph unicode="&#x127;" horiz-adv-x="1153" d="M45 1155v168h121v152h192v-152h308v-168h-308v-174q166 63 295 63q205 0 278 -115.5t73 -393.5v-535h-193v532q0 186 -37 259t-156 73l-260 -47v-817h-192v1155h-121z" />
<glyph unicode="&#x128;" horiz-adv-x="526" d="M164 0v1421h198v-1421h-198zM598 1882l45 -147q-12 -14 -32.5 -35t-74 -54.5t-94.5 -33.5q-53 0 -180 53t-158 53q-51 0 -163 -94l-43 148q12 14 33.5 34.5t75.5 55t95 34.5q61 0 186.5 -52t149.5 -52q47 0 160 90z" />
<glyph unicode="&#x129;" horiz-adv-x="542" d="M174 0v1022h195v-1022h-195zM567 1497l43 -149q-10 -12 -29.5 -31t-70.5 -50.5t-92 -31.5q-51 0 -162 49t-141 49q-23 0 -62 -21.5t-65 -41.5l-29 -23l-43 148l33 31q20 19 72.5 52t93.5 33q59 0 167.5 -48t133.5 -48q47 0 151 82z" />
<glyph unicode="&#x12a;" horiz-adv-x="526" d="M164 0v1421h198v-1421h-198zM-66 1690v168h662v-168h-662z" />
<glyph unicode="&#x12b;" horiz-adv-x="542" d="M174 0v1022h195v-1022h-195zM-39 1290v168h621v-168h-621z" />
<glyph unicode="&#x12c;" horiz-adv-x="526" d="M164 0v1421h198v-1421h-198zM-78 1898h199q4 -55 43 -86.5t100.5 -31.5t100 31.5t43.5 86.5h198q-10 -127 -99 -204.5t-242.5 -77.5t-243 77.5t-99.5 204.5z" />
<glyph unicode="&#x12d;" horiz-adv-x="542" d="M174 0v1022h195v-1022h-195zM-80 1511h201q4 -61 44 -97t107 -36q70 0 109 36t43 97h199q-10 -139 -100.5 -222t-250.5 -83q-162 0 -252 83t-100 222z" />
<glyph unicode="&#x12e;" horiz-adv-x="526" d="M164 0v1421h198v-1421h-4q-127 -127 -127 -188q0 -31 17.5 -51.5t46.5 -20.5l92 10l21 -160q-102 -20 -179 -20q-88 0 -143 50t-55 136q0 121 143 244h-10z" />
<glyph unicode="&#x12f;" horiz-adv-x="505" d="M-702 0v1022h194v-1022h-194zM-702 1221v215h194v-215h-194zM375 -250l20 -160q-102 -20 -178 -20q-88 0 -143.5 50t-55.5 136q0 121 152 250l14 12l166 -16q-131 -121 -131 -190q0 -31 17.5 -51.5t46.5 -20.5z" />
<glyph unicode="&#x130;" horiz-adv-x="526" d="M164 0v1421h198v-1421h-198zM166 1647v211h194v-211h-194z" />
<glyph unicode="&#x131;" horiz-adv-x="534" d="M174 0v1022h195v-1022h-195z" />
<glyph unicode="&#x134;" horiz-adv-x="634" d="M469 1421q0 -217 1 -596t1 -598q0 -121 -22.5 -195.5t-77 -113.5t-123 -51t-182.5 -12v184q123 0 163.5 36t40.5 169v1177h199zM-20 1616l270 285h176l270 -285h-221l-135 131l-135 -131h-225z" />
<glyph unicode="&#x135;" horiz-adv-x="524" d="M174 12v1010h195v-1012q0 -195 -70 -291t-281 -202l-84 161q152 86 196 145.5t44 188.5zM-63 1204l260 320h155l262 -320h-211l-127 158l-129 -158h-210z" />
<glyph unicode="&#x136;" horiz-adv-x="1218" d="M920 0l-330 602l-221 -12v-590h-199v1421h199v-639l217 13l317 626h232l-371 -710l389 -711h-233zM455 -600l88 442h188l-104 -442h-172z" />
<glyph unicode="&#x137;" horiz-adv-x="1032" d="M358 0h-192v1458h192v-840l140 13l270 391h219l-315 -475l323 -547h-219l-274 442l-144 -12v-430zM371 -600l88 442h188l-104 -442h-172z" />
<glyph unicode="&#x139;" horiz-adv-x="1030" d="M954 0h-784v1421h199v-1231h585v-190zM250 1751l473 191l68 -181l-480 -172z" />
<glyph unicode="&#x13a;" horiz-adv-x="514" d="M160 0v1458h194v-1458h-194zM-12 1784l473 190l67 -180l-479 -172z" />
<glyph unicode="&#x13b;" horiz-adv-x="1032" d="M954 0h-784v1421h199v-1231h585v-190zM377 -600l88 442h188l-104 -442h-172z" />
<glyph unicode="&#x13c;" horiz-adv-x="514" d="M160 0v1458h194v-1458h-194zM72 -600l88 442h188l-104 -442h-172z" />
<glyph unicode="&#x13d;" horiz-adv-x="1032" d="M954 0h-784v1421h199v-1231h585v-190zM918 1421v-497h-189v497h189z" />
<glyph unicode="&#x13e;" horiz-adv-x="921" d="M160 0v1458h194v-1458h-194zM764 1421v-497h-189v497h189z" />
<glyph unicode="&#x141;" horiz-adv-x="1032" d="M954 0h-784v526l-117 -82l-96 134l213 149v694h199v-555l293 205l96 -133l-389 -272v-476h585v-190z" />
<glyph unicode="&#x142;" horiz-adv-x="655" d="M231 0v530l-127 -88l-94 133l221 154v729h195v-592l143 101l95 -133l-238 -166v-668h-195z" />
<glyph unicode="&#x143;" horiz-adv-x="1423" d="M170 0v1421h336l508 -1179h41v1179h198v-1421h-327l-516 1180h-41v-1180h-199zM442 1751l473 191l68 -181l-479 -172z" />
<glyph unicode="&#x144;" horiz-adv-x="1159" d="M358 0h-192v1022h192v-59q168 82 295 81q207 0 280 -115.5t73 -393.5v-535h-195v532q0 186 -37 259t-153 73q-115 0 -263 -61v-803zM307 1362l473 190l68 -180l-479 -172z" />
<glyph unicode="&#x145;" horiz-adv-x="1423" d="M170 0v1421h336l508 -1179h41v1179h198v-1421h-327l-516 1180h-41v-1180h-199zM573 -600l89 442h188l-105 -442h-172z" />
<glyph unicode="&#x146;" horiz-adv-x="1159" d="M358 0h-192v1022h192v-59q168 82 295 81q207 0 280 -115.5t73 -393.5v-535h-195v532q0 186 -37 259t-153 73q-115 0 -263 -61v-803zM430 -600l88 442h189l-105 -442h-172z" />
<glyph unicode="&#x147;" horiz-adv-x="1423" d="M170 0v1421h336l508 -1179h41v1179h198v-1421h-327l-516 1180h-41v-1180h-199zM1071 1903l-270 -285h-174l-273 285h224l137 -136l133 136h223z" />
<glyph unicode="&#x148;" horiz-adv-x="1159" d="M358 0h-192v1022h192v-59q168 82 295 81q207 0 280 -115.5t73 -393.5v-535h-195v532q0 186 -37 259t-153 73q-115 0 -263 -61v-803zM498 1204l-258 320h211l129 -156l127 156h211l-261 -320h-159z" />
<glyph unicode="&#x14a;" horiz-adv-x="1423" d="M170 0v1421h336l508 -1179h41v1179h198v-256q0 -217 1 -596t1 -598q0 -121 -22.5 -195.5t-76.5 -113.5t-122.5 -51t-183.5 -12v184q123 0 164 37t41 168v12h-129l-516 1180h-41v-1180h-199z" />
<glyph unicode="&#x14b;" horiz-adv-x="1159" d="M356 0h-192v1022h192v-59q176 82 303 81q197 0 272 -121.5t75 -387.5v-535q0 -199 -64.5 -292t-275.5 -202l-86 162q150 86 191.5 143.5t41.5 184.5v536q0 174 -38 255t-150 81q-49 0 -117 -16t-111 -33l-41 -14v-805z" />
<glyph unicode="&#x14c;" horiz-adv-x="1329" d="M664 170q213 0 286.5 122t73.5 410q0 285 -76 417t-284.5 132t-284.5 -132t-76 -416.5t75 -408.5t286 -124zM664 -23q-315 0 -440.5 175.5t-125.5 550t126 558t440 183.5q315 0 441 -183.5t126 -558.5q0 -379 -124 -552t-443 -173zM330 1675v168h661v-168h-661z" />
<glyph unicode="&#x14d;" horiz-adv-x="1081" d="M543 1044q236 0 341 -131t105 -393q0 -274 -98 -408.5t-348 -134.5q-252 0 -351.5 132.5t-99.5 410.5q0 266 103.5 395t347.5 129zM543 154q150 0 200 85t50 281q0 184 -57.5 267t-192.5 83q-145 0 -199.5 -78.5t-54.5 -271.5q0 -201 51 -283.5t203 -82.5zM229 1290v168 h621v-168h-621z" />
<glyph unicode="&#x14e;" horiz-adv-x="1329" d="M664 170q213 0 286.5 122t73.5 410q0 285 -76 417t-284.5 132t-284.5 -132t-76 -416.5t75 -408.5t286 -124zM664 -23q-315 0 -440.5 175.5t-125.5 550t126 558t440 183.5q315 0 441 -183.5t126 -558.5q0 -379 -124 -552t-443 -173zM324 1898h198q4 -55 43 -86.5t99 -31.5 q61 0 101 31.5t42 86.5h201q-10 -127 -100.5 -204.5t-243.5 -77.5q-152 0 -241 77.5t-99 204.5z" />
<glyph unicode="&#x14f;" horiz-adv-x="1081" d="M543 1044q236 0 341 -131t105 -393q0 -274 -98 -408.5t-348 -134.5q-252 0 -351.5 132.5t-99.5 410.5q0 266 103.5 395t347.5 129zM543 154q150 0 200 85t50 281q0 184 -57.5 267t-192.5 83q-145 0 -199.5 -78.5t-54.5 -271.5q0 -201 51 -283.5t203 -82.5zM190 1511h199 q4 -61 44 -97t108 -36q72 0 109.5 35t41.5 98h201q-10 -139 -100.5 -222t-251.5 -83q-160 0 -250.5 83t-100.5 222z" />
<glyph unicode="&#x150;" horiz-adv-x="1329" d="M664 170q213 0 286.5 122t73.5 410q0 285 -76 417t-284.5 132t-284.5 -132t-76 -416.5t75 -408.5t286 -124zM664 -23q-315 0 -440.5 175.5t-125.5 550t126 558t440 183.5q315 0 441 -183.5t126 -558.5q0 -379 -124 -552t-443 -173zM711 1634l237 314l168 -78l-254 -307z M285 1636l239 314l168 -80l-254 -305z" />
<glyph unicode="&#x151;" horiz-adv-x="1081" d="M543 1044q236 0 341 -131t105 -393q0 -274 -98 -408.5t-348 -134.5q-252 0 -351.5 132.5t-99.5 410.5q0 266 103.5 395t347.5 129zM543 154q150 0 200 85t50 281q0 184 -57.5 267t-192.5 83q-145 0 -199.5 -78.5t-54.5 -271.5q0 -201 51 -283.5t203 -82.5zM561 1282 l279 317l147 -104l-287 -315zM160 1282l276 317l150 -104l-287 -315z" />
<glyph unicode="&#x152;" horiz-adv-x="1933" d="M1800 0h-862q-150 -23 -276 -23q-311 0 -425 172.5t-114 557.5q0 391 118.5 564t420.5 173q133 0 272 -23h866v-192h-670v-410h547v-190h-547v-436h670v-193zM692 172q55 0 242 16v1043q-215 18 -248 18q-209 0 -283.5 -118.5t-74.5 -421.5q0 -301 72.5 -419t291.5 -118z " />
<glyph unicode="&#x153;" horiz-adv-x="1794" d="M1266 156l376 18l5 -154q-233 -43 -408 -43q-229 0 -326 148q-98 -147 -342 -148q-252 0 -351 132.5t-99 410.5q0 266 103.5 395t346.5 129q250 0 351 -163q100 164 335 163q215 0 319.5 -114.5t104.5 -358.5l-12 -141h-651q0 -141 56.5 -207.5t191.5 -66.5zM571 154 q150 0 200 85t50 281q0 184 -57 267t-193 83q-145 0 -199.5 -78.5t-54.5 -271.5q0 -201 51 -283.5t203 -82.5zM1016 582h473q0 158 -53.5 224t-178.5 66q-121 0 -181 -69t-60 -221z" />
<glyph unicode="&#x154;" horiz-adv-x="1267" d="M954 0l-227 512h-358v-512h-199v1421h530q238 0 351.5 -106.5t113.5 -337.5q0 -315 -241 -412l250 -565h-220zM961 973q0 260 -261 260h-331v-533h333q259 1 259 273zM362 1751l474 191l67 -181l-479 -172z" />
<glyph unicode="&#x155;" horiz-adv-x="733" d="M166 0v1022h192v-121q145 109 334 146v-205q-188 -37 -334 -125v-717h-192zM113 1362l473 190l67 -180l-479 -172z" />
<glyph unicode="&#x156;" horiz-adv-x="1269" d="M954 0l-227 512h-358v-512h-199v1421h530q238 0 351.5 -106.5t113.5 -337.5q0 -315 -241 -412l250 -565h-220zM961 973q0 260 -261 260h-331v-533h333q259 1 259 273zM492 -600l88 442h188l-104 -442h-172z" />
<glyph unicode="&#x157;" horiz-adv-x="733" d="M166 0v1022h192v-121q145 109 334 146v-205q-188 -37 -334 -125v-717h-192zM74 -600l88 442h188l-104 -442h-172z" />
<glyph unicode="&#x158;" horiz-adv-x="1267" d="M954 0l-227 512h-358v-512h-199v1421h530q238 0 351.5 -106.5t113.5 -337.5q0 -315 -241 -412l250 -565h-220zM961 973q0 260 -261 260h-331v-533h333q259 1 259 273zM993 1905l-270 -285h-174l-273 285h224l137 -136l133 136h223z" />
<glyph unicode="&#x159;" horiz-adv-x="733" d="M166 0v1022h192v-121q145 109 334 146v-205q-188 -37 -334 -125v-717h-192zM303 1204l-258 320h211l129 -156l127 156h211l-260 -320h-160z" />
<glyph unicode="&#x15a;" horiz-adv-x="1089" d="M981 1399l-16 -180q-287 35 -406 34q-279 0 -278 -198q0 -109 65.5 -153t259.5 -91q227 -59 315.5 -140t88.5 -261q0 -219 -124 -324.5t-347 -105.5q-68 0 -176.5 12t-182.5 24l-74 11l21 180q264 -35 410 -35q141 0 207.5 54.5t66.5 176.5q0 98 -61.5 144.5t-231.5 85.5 q-240 55 -339 142t-99 276q0 197 126 296t353 99zM287 1751l473 191l67 -181l-479 -172z" />
<glyph unicode="&#x15b;" horiz-adv-x="1005" d="M864 1001l-4 -163q-236 33 -362 32q-98 0 -147.5 -29.5t-49.5 -101.5q0 -57 46 -82.5t188 -48.5q207 -33 284.5 -95t77.5 -210q0 -172 -103.5 -249t-299.5 -77q-61 0 -153.5 11.5t-156.5 21.5l-61 10l8 166q242 -33 346 -32q121 0 173 31.5t52 111.5q0 63 -43 88t-182 47 q-207 35 -289 94.5t-82 208.5q0 160 108 234.5t271 74.5q68 0 162 -10t156 -22zM233 1362l474 190l67 -180l-479 -172z" />
<glyph unicode="&#x15c;" horiz-adv-x="1089" d="M981 1399l-16 -180q-287 35 -406 34q-279 0 -278 -198q0 -109 65.5 -153t259.5 -91q227 -59 315.5 -140t88.5 -261q0 -219 -124 -324.5t-347 -105.5q-68 0 -176.5 12t-182.5 24l-74 11l21 180q264 -35 410 -35q141 0 207.5 54.5t66.5 176.5q0 98 -61.5 144.5t-231.5 85.5 q-240 55 -339 142t-99 276q0 197 126 296t353 99zM199 1624l270 285h176l270 -285h-221l-135 131l-135 -131h-225z" />
<glyph unicode="&#x15d;" horiz-adv-x="1005" d="M864 1001l-4 -163q-236 33 -362 32q-98 0 -147.5 -29.5t-49.5 -101.5q0 -57 46 -82.5t188 -48.5q207 -33 284.5 -95t77.5 -210q0 -172 -103.5 -249t-299.5 -77q-61 0 -153.5 11.5t-156.5 21.5l-61 10l8 166q242 -33 346 -32q121 0 173 31.5t52 111.5q0 63 -43 88t-182 47 q-207 35 -289 94.5t-82 208.5q0 160 108 234.5t271 74.5q68 0 162 -10t156 -22zM164 1204l260 320h156l262 -320h-211l-127 158l-129 -158h-211z" />
<glyph unicode="&#x15e;" horiz-adv-x="1089" d="M844 -260q0 -201 -203 -201q-39 0 -84 4t-70 8l-26 5l6 118q74 -4 123 -4q86 0 86 70q0 61 -86 61h-74v179q-158 4 -410 47l21 180q264 -35 410 -35q141 0 207.5 54.5t66.5 176.5q0 98 -61.5 144.5t-231.5 85.5q-240 55 -339 142t-99 276q0 197 126 296t353 99l422 -47 l-16 -180q-287 35 -406 34q-279 0 -278 -198q0 -109 65.5 -153t259.5 -91q227 -59 315.5 -140t88.5 -261q0 -395 -402 -426v-76q125 -2 180.5 -36t55.5 -132z" />
<glyph unicode="&#x15f;" horiz-adv-x="1005" d="M768 -260q0 -201 -203 -201q-39 0 -84 4t-71 8l-25 5l6 118q74 -4 123 -4q86 0 86 70q0 61 -86 61h-74v179q-61 4 -140 14t-128 18l-49 8l8 166q242 -33 346 -32q121 0 173 31.5t52 111.5q0 63 -43 88t-182 47q-207 35 -289 94.5t-82 208.5q0 160 108 234.5t271 74.5 q68 0 162 -10t156 -22l61 -11l-4 -163q-236 33 -362 32q-98 0 -147.5 -29.5t-49.5 -101.5q0 -57 46 -82.5t188 -48.5q207 -33 284.5 -95t77.5 -210q0 -311 -365 -323v-72q125 -2 180.5 -36t55.5 -132z" />
<glyph unicode="&#x160;" horiz-adv-x="1089" d="M981 1399l-16 -180q-287 35 -406 34q-279 0 -278 -198q0 -109 65.5 -153t259.5 -91q227 -59 315.5 -140t88.5 -261q0 -219 -124 -324.5t-347 -105.5q-68 0 -176.5 12t-182.5 24l-74 11l21 180q264 -35 410 -35q141 0 207.5 54.5t66.5 176.5q0 98 -61.5 144.5t-231.5 85.5 q-240 55 -339 142t-99 276q0 197 126 296t353 99zM922 1909l-271 -285h-174l-272 285h223l137 -135l133 135h224z" />
<glyph unicode="&#x161;" horiz-adv-x="1005" d="M864 1001l-4 -163q-236 33 -362 32q-98 0 -147.5 -29.5t-49.5 -101.5q0 -57 46 -82.5t188 -48.5q207 -33 284.5 -95t77.5 -210q0 -172 -103.5 -249t-299.5 -77q-61 0 -153.5 11.5t-156.5 21.5l-61 10l8 166q242 -33 346 -32q121 0 173 31.5t52 111.5q0 63 -43 88t-182 47 q-207 35 -289 94.5t-82 208.5q0 160 108 234.5t271 74.5q68 0 162 -10t156 -22zM442 1204l-258 320h211l129 -156l127 156h211l-260 -320h-160z" />
<glyph unicode="&#x162;" horiz-adv-x="999" d="M-12 1231v190h1024v-190h-410v-1231h-201v1231h-413zM360 -600l89 442h188l-105 -442h-172z" />
<glyph unicode="&#x163;" horiz-adv-x="743" d="M678 848h-301v-447q0 -147 21.5 -194t105.5 -47l174 10l10 -168q-137 -25 -209 -25q-168 0 -231.5 80t-63.5 299v492h-137v174h137v307h193v-307h301v-174zM227 -600l88 442h189l-105 -442h-172z" />
<glyph unicode="&#x164;" horiz-adv-x="999" d="M-12 1231v190h1024v-190h-410v-1231h-201v1231h-413zM858 1905l-270 -285h-174l-273 285h224l137 -136l133 136h223z" />
<glyph unicode="&#x165;" horiz-adv-x="1067" d="M678 848h-301v-447q0 -147 21.5 -194t105.5 -47l174 10l10 -168q-137 -25 -209 -25q-168 0 -231.5 80t-63.5 299v492h-137v174h137v307h193v-307h301v-174zM985 1421v-497h-188v497h188z" />
<glyph unicode="&#x166;" horiz-adv-x="999" d="M96 584v168h305v479h-413v190h1024v-190h-410v-479h324v-168h-324v-584h-201v584h-305z" />
<glyph unicode="&#x167;" horiz-adv-x="743" d="M678 848h-301v-236h-193v236h-137v174h137v307h193v-307h301v-174zM504 160l174 10l10 -168q-137 -25 -209 -25q-168 0 -231.5 80t-63.5 299v88h193v-43q0 -147 21.5 -194t105.5 -47zM651 444h-274v168h274v-168zM68 444v168h116v-168h-116z" />
<glyph unicode="&#x168;" horiz-adv-x="1318" d="M346 442q0 -145 79 -205.5t226 -60.5q152 0 232 61.5t80 204.5v979h200v-979q0 -244 -128 -352t-384 -108q-250 0 -377 109.5t-127 350.5v979h199v-979zM979 1894l45 -147q-12 -14 -32.5 -34.5t-73 -54.5t-93.5 -34q-55 0 -182 53.5t-156 53.5q-51 0 -163 -95l-45 148 q12 14 33.5 34.5t76.5 55.5t96 35q59 0 184.5 -52.5t149.5 -52.5q47 0 160 90z" />
<glyph unicode="&#x169;" horiz-adv-x="1144" d="M786 1022h195v-1022h-195v59q-160 -82 -286 -82q-211 0 -280.5 112t-69.5 400v533h194v-530q0 -201 34 -269.5t157 -68.5q51 0 113.5 15t101.5 32l36 14v807zM868 1497l43 -149q-10 -12 -29.5 -31t-70.5 -50.5t-92 -31.5q-51 0 -162 49t-141 49q-23 0 -62 -21.5 t-67 -41.5l-27 -23l-43 148l33 31q20 19 72.5 52t93.5 33q59 0 167.5 -48t133.5 -48q45 0 151 82z" />
<glyph unicode="&#x16a;" horiz-adv-x="1318" d="M346 442q0 -145 79 -205.5t226 -60.5q152 0 232 61.5t80 204.5v979h200v-979q0 -244 -128 -352t-384 -108q-250 0 -377 109.5t-127 350.5v979h199v-979zM328 1675v168h661v-168h-661z" />
<glyph unicode="&#x16b;" horiz-adv-x="1144" d="M786 1022h195v-1022h-195v59q-160 -82 -286 -82q-211 0 -280.5 112t-69.5 400v533h194v-530q0 -201 34 -269.5t157 -68.5q51 0 113.5 15t101.5 32l36 14v807zM262 1290v168h621v-168h-621z" />
<glyph unicode="&#x16c;" horiz-adv-x="1318" d="M346 442q0 -145 79 -205.5t226 -60.5q152 0 232 61.5t80 204.5v979h200v-979q0 -244 -128 -352t-384 -108q-250 0 -377 109.5t-127 350.5v979h199v-979zM317 1898h201q4 -55 43 -86.5t98 -31.5q61 0 101.5 31.5t42.5 86.5h201q-10 -127 -100.5 -204.5t-244 -77.5 t-243 77.5t-99.5 204.5z" />
<glyph unicode="&#x16d;" horiz-adv-x="1144" d="M786 1022h195v-1022h-195v59q-160 -82 -286 -82q-211 0 -280.5 112t-69.5 400v533h194v-530q0 -201 34 -269.5t157 -68.5q51 0 113.5 15t101.5 32l36 14v807zM221 1511h199q4 -61 44 -97t107 -36q72 0 110 35t42 98h201q-10 -139 -100.5 -222t-252.5 -83q-160 0 -250 83 t-100 222z" />
<glyph unicode="&#x16e;" horiz-adv-x="1318" d="M346 442q0 -145 79 -205.5t226 -60.5q152 0 232 61.5t80 204.5v979h200v-979q0 -244 -128 -352t-384 -108q-250 0 -377 109.5t-127 350.5v979h199v-979zM924 1726.5q0 -106.5 -75 -168t-189.5 -61.5t-189.5 61.5t-75 168t75 169t189.5 62.5t189.5 -62.5t75 -169z M549 1726q0 -43 29.5 -66.5t80.5 -23.5q111 0 111 90q0 43 -29.5 68t-81 25t-81 -25t-29.5 -68z" />
<glyph unicode="&#x16f;" horiz-adv-x="1144" d="M786 1022h195v-1022h-195v59q-160 -82 -286 -82q-211 0 -280.5 112t-69.5 400v533h194v-530q0 -201 34 -269.5t157 -68.5q51 0 113.5 15t101.5 32l36 14v807zM356 1317q0 92 64.5 156.5t159.5 64.5q92 0 156.5 -64.5t64.5 -156.5q0 -94 -64.5 -157.5t-156.5 -63.5 q-96 0 -160 63.5t-64 157.5zM492 1317q0 -39 25.5 -64.5t62 -25.5t62.5 25.5t26 64.5q0 37 -26 62.5t-62.5 25.5t-62 -25.5t-25.5 -62.5z" />
<glyph unicode="&#x170;" horiz-adv-x="1318" d="M346 442q0 -145 79 -205.5t226 -60.5q152 0 232 61.5t80 204.5v979h200v-979q0 -244 -128 -352t-384 -108q-250 0 -377 109.5t-127 350.5v979h199v-979zM719 1612l239 313l166 -78l-252 -307zM295 1614l240 313l165 -80l-251 -305z" />
<glyph unicode="&#x171;" horiz-adv-x="1144" d="M786 1022h195v-1022h-195v59q-160 -82 -286 -82q-211 0 -280.5 112t-69.5 400v533h194v-530q0 -201 34 -269.5t157 -68.5q51 0 113.5 15t101.5 32l36 14v807zM635 1282l278 317l148 -104l-287 -315zM233 1282l277 317l149 -104l-286 -315z" />
<glyph unicode="&#x172;" horiz-adv-x="1318" d="M879 -250l20 -160q-102 -20 -178 -20q-88 0 -143.5 50t-55.5 136q0 109 123 226q-248 2 -373 110.5t-125 349.5v979h199v-979q0 -145 79 -205.5t226 -60.5q152 0 232 61.5t80 204.5v979h200v-979q0 -369 -311 -440h2q-131 -121 -131 -190q0 -31 17.5 -51.5t45.5 -20.5z " />
<glyph unicode="&#x173;" horiz-adv-x="1144" d="M786 1022h195v-1022h-8l4 2l-166 16q-10 -6 -23 -18h-2v59q-160 -82 -286 -82q-211 0 -280.5 112t-69.5 400v533h194v-530q0 -201 34 -269.5t157 -68.5q51 0 113.5 15t101.5 32l36 14v807zM1001 -250l21 -160q-102 -20 -178 -20q-88 0 -143.5 50t-55.5 136q0 121 143 244 h185q-127 -127 -127 -188q0 -31 17.5 -51.5t45.5 -20.5z" />
<glyph unicode="&#x174;" horiz-adv-x="1869" d="M66 1421h206l246 -1218h49l256 1210h226l258 -1210h49l241 1218h207l-307 -1421h-330l-233 1124l-225 -1124h-332zM575 1624l271 285h176l270 -285h-221l-135 131l-135 -131h-226z" />
<glyph unicode="&#x175;" horiz-adv-x="1544" d="M45 1022h193l180 -848h39l213 830h204l213 -830h39l181 848h192l-227 -1022h-320l-182 743l-182 -743h-318zM434 1204l260 320h156l262 -320h-211l-127 158l-129 -158h-211z" />
<glyph unicode="&#x176;" horiz-adv-x="1144" d="M674 608v-608h-199v608l-442 813h221l319 -590l316 590h223zM213 1624l270 285h176l271 -285h-221l-136 131l-135 -131h-225z" />
<glyph unicode="&#x177;" horiz-adv-x="989" d="M39 1022h192l232 -836h61l234 836h192l-401 -1466h-193l121 444h-160zM156 1204l260 320h155l263 -320h-211l-127 158l-129 -158h-211z" />
<glyph unicode="&#x178;" horiz-adv-x="1144" d="M674 608v-608h-199v608l-442 813h221l319 -590l316 590h223zM264 1663v213h185v-213h-185zM696 1663v213h187v-213h-187z" />
<glyph unicode="&#x179;" horiz-adv-x="1167" d="M123 1231v190h921v-221l-673 -973v-37h673v-190h-921v219l674 973v39h-674zM313 1751l473 191l68 -181l-479 -172z" />
<glyph unicode="&#x17a;" horiz-adv-x="980" d="M111 850v174h759v-174l-526 -676h526v-174h-759v174l526 676h-526zM207 1362l473 190l68 -180l-480 -172z" />
<glyph unicode="&#x17b;" horiz-adv-x="1167" d="M123 1231v190h921v-221l-673 -973v-37h673v-190h-921v219l674 973v39h-674zM487 1647v211h193v-211h-193z" />
<glyph unicode="&#x17c;" horiz-adv-x="980" d="M111 850v174h759v-174l-526 -676h526v-174h-759v174l526 676h-526zM393 1212v211h193v-211h-193z" />
<glyph unicode="&#x17d;" horiz-adv-x="1167" d="M123 1231v190h921v-221l-673 -973v-37h673v-190h-921v219l674 973v39h-674zM954 1909l-270 -285h-174l-272 285h223l137 -135l133 135h223z" />
<glyph unicode="&#x17e;" horiz-adv-x="980" d="M111 850v174h759v-174l-526 -676h526v-174h-759v174l526 676h-526zM391 1204l-258 320h211l129 -156l127 156h211l-260 -320h-160z" />
<glyph unicode="&#x192;" d="M664 -135q0 -203 -84 -285t-248 -82q-33 0 -80 5t-78 10l-31 4l2 153l15 -2h36q22 0 46 -1l49 -2q25 -1 41 -1q137 0 137 201v889h-123v174h123v88q0 213 55.5 303t198.5 100q49 4 84 0q12 0 24 -1l25 -2l25 -2l23 -2q11 -1 20.5 -2t17.5 -2t13.5 -2t7.5 -1h4l-2 -160 q-102 4 -168 4q-70 0 -101.5 -49t-31.5 -156v-116h280v-174h-280v-889z" />
<glyph unicode="&#x1fa;" horiz-adv-x="1239" d="M883 1509q0 -82 -45 -139l348 -1368h-201l-92 317h-553l-88 -319h-199l350 1366q-47 57 -47 143q0 106 74 168t188.5 62t189.5 -62t75 -168zM569 1237l-186 -727h469l-182 727h-101zM336 1948l473 190l68 -180l-480 -172zM510 1509q0 -72 72 -88h75q72 16 72 88 q0 90 -111 90q-108 0 -108 -90z" />
<glyph unicode="&#x1fb;" horiz-adv-x="1073" d="M903 707v-463q2 -49 26.5 -70.5t74.5 -28.5l-7 -165q-104 0 -159.5 16t-100.5 57q-178 -76 -356 -76q-137 0 -212 84t-75 238q0 152 80 222.5t248 84.5l287 25v74q0 156 -152 155q-68 0 -166 -6t-162 -12l-65 -6l-8 168q256 41 411 40q168 0 252 -79.5t84 -257.5z M709 479l-265 -20q-154 -12 -153 -156q0 -158 125 -158q131 0 293 52v282zM303 1292q0 92 64.5 156.5t158.5 64.5q92 0 157 -64.5t65 -156.5q0 -94 -65 -157.5t-157 -63.5q-96 0 -159.5 63.5t-63.5 157.5zM438 1292q0 -39 25.5 -64.5t64.5 -25.5q35 0 60.5 25.5t25.5 64.5 q0 37 -25.5 62.5t-60.5 25.5q-39 0 -64.5 -25.5t-25.5 -62.5zM264 1749l473 190l68 -180l-479 -172z" />
<glyph unicode="&#x1fc;" horiz-adv-x="1689" d="M877 0v319h-488l-98 -319h-203l432 1421h1231v-190h-678v-412h555v-188h-555v-441h678v-190h-874zM662 1231l-222 -721h437l2 721h-217zM598 1751l473 191l68 -181l-480 -172z" />
<glyph unicode="&#x1fd;" horiz-adv-x="1695" d="M1165 156l377 18l4 -154q-233 -43 -407 -43q-203 0 -305 107l-60 -27q-178 -80 -379 -80q-139 0 -212.5 84t-73.5 238q0 164 86 229.5t280 81.5l250 21v74q0 76 -41 115.5t-113 39.5q-68 0 -165 -5t-160 -11l-66 -4l-8 170q254 35 410 34q201 0 272 -122q102 123 305 122 q213 0 317.5 -114.5t104.5 -358.5l-12 -141h-651q2 -141 58 -207.5t189 -66.5zM430 145q111 0 318 60q-27 100 -27 274l-260 -20q-80 -6 -118 -43t-38 -113q0 -158 125 -158zM918 582h471q0 158 -53.5 224t-176.5 66t-182 -69t-59 -221zM596 1362l473 190l68 -180l-480 -172 z" />
<glyph unicode="&#x1fe;" horiz-adv-x="1343" d="M664 -23q-115 0 -215 27l-119 -254l-176 78l125 266q-180 158 -181 608q0 375 126 558.5t440 183.5q125 0 229 -33l113 238l180 -68l-127 -270q172 -166 172 -609q0 -379 -124 -552t-443 -173zM303 702q0 -289 72 -403l434 930q-63 23 -145 22q-209 0 -285 -132t-76 -417 zM664 170q213 0 286.5 122t73.5 410q0 270 -66 396l-426 -914q56 -14 132 -14zM375 1751l473 191l67 -181l-479 -172z" />
<glyph unicode="&#x1ff;" horiz-adv-x="1081" d="M543 1044q80 0 137 -14l86 211l123 -45l-86 -213q186 -113 186 -463q0 -274 -98 -408.5t-348 -134.5q-72 0 -148 15l-88 -217l-123 45l90 217q-182 109 -182 483q0 266 103.5 395t347.5 129zM543 154q150 0 200 85t50 281q0 201 -70 283l-262 -643q37 -6 82 -6zM543 870 q-145 0 -199.5 -78.5t-54.5 -271.5q0 -229 67 -305l258 647q-26 8 -71 8zM270 1362l473 190l68 -180l-479 -172z" />
<glyph unicode="&#x218;" horiz-adv-x="1089" d="M981 1399l-16 -180q-287 35 -406 34q-279 0 -278 -198q0 -109 65.5 -153t259.5 -91q227 -59 315.5 -140t88.5 -261q0 -219 -124 -324.5t-347 -105.5q-68 0 -176.5 12t-182.5 24l-74 11l21 180q264 -35 410 -35q141 0 207.5 54.5t66.5 176.5q0 98 -61.5 144.5t-231.5 85.5 q-240 55 -339 142t-99 276q0 197 126 296t353 99zM385 -600l88 442h189l-105 -442h-172z" />
<glyph unicode="&#x219;" horiz-adv-x="1005" d="M864 1001l-4 -163q-236 33 -362 32q-98 0 -147.5 -29.5t-49.5 -101.5q0 -57 46 -82.5t188 -48.5q207 -33 284.5 -95t77.5 -210q0 -172 -103.5 -249t-299.5 -77q-61 0 -153.5 11.5t-156.5 21.5l-61 10l8 166q242 -33 346 -32q121 0 173 31.5t52 111.5q0 63 -43 88t-182 47 q-207 35 -289 94.5t-82 208.5q0 160 108 234.5t271 74.5q68 0 162 -10t156 -22zM362 -600l89 442h188l-104 -442h-173z" />
<glyph unicode="&#x2c6;" horiz-adv-x="505" d="M-63 1204l260 320h155l262 -320h-211l-127 158l-129 -158h-210z" />
<glyph unicode="&#x2c7;" horiz-adv-x="505" d="M203 1204l-258 320h211l129 -156l127 156h211l-261 -320h-159z" />
<glyph unicode="&#x2d8;" horiz-adv-x="505" d="M-74 1511h199q4 -61 44 -97t110 -36q141 0 151 133h199q-10 -139 -100.5 -222t-249.5 -83q-162 0 -252.5 83t-100.5 222z" />
<glyph unicode="&#x2d9;" horiz-adv-x="505" d="M156 1212v211h194v-211h-194z" />
<glyph unicode="&#x2da;" horiz-adv-x="505" d="M37 1317q0 92 64.5 156.5t158.5 64.5q92 0 156.5 -64.5t64.5 -156.5q0 -94 -64.5 -157.5t-156.5 -63.5q-96 0 -159.5 63.5t-63.5 157.5zM172 1317q0 -39 25.5 -64.5t64.5 -25.5q35 0 60.5 25.5t25.5 64.5q0 37 -25.5 62.5t-60.5 25.5q-39 0 -64.5 -25.5t-25.5 -62.5z" />
<glyph unicode="&#x2db;" horiz-adv-x="937" d="M764 -250l20 -160q-102 -20 -178 -20q-88 0 -143 50t-55 136q0 121 151 250l14 12l166 -16q-131 -121 -131 -190q0 -31 17.5 -51.5t46.5 -20.5z" />
<glyph unicode="&#x2dc;" horiz-adv-x="505" d="M580 1497l43 -149q-10 -12 -30 -31t-70 -50.5t-91 -31.5q-53 0 -163.5 49t-141.5 49q-23 0 -61.5 -21.5t-65.5 -41.5l-29 -23l-43 148l33 31q20 19 72.5 52t93.5 33q59 0 167.5 -48t133.5 -48q48 0 152 82z" />
<glyph unicode="&#x2dd;" horiz-adv-x="505" d="M299 1282l276 317l150 -104l-287 -315zM-102 1282l276 317l150 -104l-289 -315z" />
<glyph unicode="&#x300;" horiz-adv-x="505" d="M86 1552l473 -192l-57 -152l-479 172z" />
<glyph unicode="&#x301;" horiz-adv-x="505" d="M-6 1362l473 190l68 -180l-480 -172z" />
<glyph unicode="&#x302;" horiz-adv-x="505" d="M-49 1204l260 320h156l262 -320h-211l-127 158l-129 -158h-211z" />
<glyph unicode="&#x303;" horiz-adv-x="505" d="M580 1497l43 -149q-10 -12 -30 -31t-70 -50.5t-91 -31.5q-53 0 -163.5 49t-141.5 49q-23 0 -61.5 -21.5t-65.5 -41.5l-29 -23l-43 148l33 31q20 19 72.5 52t93.5 33q59 0 167.5 -48t133.5 -48q48 0 152 82z" />
<glyph unicode="&#x304;" horiz-adv-x="505" d="M-47 1290v168h620v-168h-620z" />
<glyph unicode="&#x306;" horiz-adv-x="505" d="M-74 1511h199q4 -61 44 -97t110 -36q141 0 151 133h199q-10 -139 -100.5 -222t-249.5 -83q-162 0 -252.5 83t-100.5 222z" />
<glyph unicode="&#x307;" horiz-adv-x="505" d="M156 1212v211h194v-211h-194z" />
<glyph unicode="&#x308;" horiz-adv-x="505" d="M-37 1268v213h187v-213h-187zM385 1268v213h184v-213h-184z" />
<glyph unicode="&#x30a;" horiz-adv-x="505" d="M43 1317q0 92 64.5 156.5t158.5 64.5q92 0 156.5 -64.5t64.5 -156.5q0 -94 -64.5 -157.5t-156.5 -63.5q-96 0 -159.5 63.5t-63.5 157.5zM178 1317q0 -39 25.5 -64.5t64.5 -25.5q35 0 60.5 25.5t25.5 64.5q0 37 -25.5 62.5t-60.5 25.5q-39 0 -64.5 -25.5t-25.5 -62.5z" />
<glyph unicode="&#x30b;" horiz-adv-x="505" d="M299 1282l276 317l150 -104l-287 -315zM-102 1282l276 317l150 -104l-289 -315z" />
<glyph unicode="&#x30c;" horiz-adv-x="505" d="M188 1204l-258 320h211l129 -156l127 156h211l-260 -320h-160z" />
<glyph unicode="&#x312;" horiz-adv-x="348" d="M305 1645l-88 -443h-188l104 443h172z" />
<glyph unicode="&#x315;" horiz-adv-x="325" d="M250 1421v-497h-189v497h189z" />
<glyph unicode="&#x326;" horiz-adv-x="348" d="M29 -600l88 442h188l-104 -442h-172z" />
<glyph unicode="&#x327;" horiz-adv-x="1345" d="M971 -260q0 -201 -203 -201q-39 0 -84 4t-70 8l-26 5l6 118q74 -4 123 -4q86 0 86 70q0 61 -86 61h-74v201h92v-94q125 -2 180.5 -36t55.5 -132z" />
<glyph unicode="&#x328;" horiz-adv-x="937" d="M764 -250l20 -160q-102 -20 -178 -20q-88 0 -143 50t-55 136q0 121 151 250l14 12l166 -16q-131 -121 -131 -190q0 -31 17.5 -51.5t46.5 -20.5z" />
<glyph unicode="&#x394;" d="M76 162l301 1227h338l301 -1229v-160h-940v162zM567 1208h-43l-245 -1028h534z" />
<glyph unicode="&#x2206;" d="M76 162l301 1227h338l301 -1229v-160h-940v162zM567 1208h-43l-245 -1028h534z" />
<glyph unicode="&#x3a9;" d="M68 154h208l-21 33q-13 22 -47 89.5t-59.5 135t-47 163t-21.5 183.5q0 326 102.5 470t360.5 144t359.5 -143.5t101.5 -470.5q0 -139 -49.5 -290t-98.5 -232l-47 -82h209v-172h-410v151q23 35 55.5 96.5t87 218t54.5 277.5q0 248 -52.5 355.5t-209.5 107.5 q-86 0 -139.5 -27.5t-80 -92t-34.5 -140.5t-8 -203q0 -242 178 -561l18 -31v-151h-409v172z" />
<glyph unicode="&#x2126;" d="M68 154h208l-21 33q-13 22 -47 89.5t-59.5 135t-47 163t-21.5 183.5q0 326 102.5 470t360.5 144t359.5 -143.5t101.5 -470.5q0 -139 -49.5 -290t-98.5 -232l-47 -82h209v-172h-410v151q23 35 55.5 96.5t87 218t54.5 277.5q0 248 -52.5 355.5t-209.5 107.5 q-86 0 -139.5 -27.5t-80 -92t-34.5 -140.5t-8 -203q0 -242 178 -561l18 -31v-151h-409v172z" />
<glyph unicode="&#x3c0;" d="M682 315v537h-270l-56 -852h-194l55 852q-53 -2 -105.5 -9t-78.5 -12l-25 -6v172q51 10 128 16.5t128 8.5l51 2h443q195 0 295 33v-172q-57 -25 -176 -31v-539q0 -94 32.5 -125.5t132.5 -31.5v-170q-223 0 -291.5 66t-68.5 261z" />
<glyph unicode="&#x1e80;" horiz-adv-x="1869" d="M66 1421h206l246 -1218h49l256 1210h226l258 -1210h49l241 1218h207l-307 -1421h-330l-233 1124l-225 -1124h-332zM750 1929l473 -192l-62 -160l-477 170z" />
<glyph unicode="&#x1e81;" horiz-adv-x="1544" d="M45 1022h193l180 -848h39l213 830h204l213 -830h39l181 848h192l-227 -1022h-320l-182 743l-182 -743h-318zM567 1552l473 -192l-57 -152l-479 172z" />
<glyph unicode="&#x1e82;" horiz-adv-x="1869" d="M66 1421h206l246 -1218h49l256 1210h226l258 -1210h49l241 1218h207l-307 -1421h-330l-233 1124l-225 -1124h-332zM674 1751l473 191l67 -181l-479 -172z" />
<glyph unicode="&#x1e83;" horiz-adv-x="1544" d="M45 1022h193l180 -848h39l213 830h204l213 -830h39l181 848h192l-227 -1022h-320l-182 743l-182 -743h-318zM500 1362l473 190l67 -180l-479 -172z" />
<glyph unicode="&#x1e84;" horiz-adv-x="1869" d="M66 1421h206l246 -1218h49l256 1210h226l258 -1210h49l241 1218h207l-307 -1421h-330l-233 1124l-225 -1124h-332zM625 1663v213h186v-213h-186zM1059 1663v213h184v-213h-184z" />
<glyph unicode="&#x1e85;" horiz-adv-x="1544" d="M45 1022h193l180 -848h39l213 830h204l213 -830h39l181 848h192l-227 -1022h-320l-182 743l-182 -743h-318zM469 1268v213h186v-213h-186zM891 1268v213h184v-213h-184z" />
<glyph unicode="&#x1eab;" horiz-adv-x="1087" d="M903 707v-463q2 -49 26.5 -70.5t74.5 -28.5l-7 -165q-104 0 -159.5 16t-100.5 57q-178 -76 -356 -76q-137 0 -212 84t-75 238q0 152 80 222.5t248 84.5l287 25v74q0 156 -152 155q-68 0 -166 -6t-162 -12l-65 -6l-8 168q256 41 411 40q168 0 252 -79.5t84 -257.5z M709 479l-265 -20q-154 -12 -153 -156q0 -158 125 -158q131 0 293 52v282zM162 1143l260 319h156l262 -319h-211l-127 157l-129 -157h-211zM791 1776l43 -150q-10 -12 -30 -30.5t-70 -50.5t-91 -32q-53 0 -163.5 49.5t-141.5 49.5q-23 0 -61.5 -21.5t-67.5 -42.5l-27 -22 l-43 147l33 32q20 19 72.5 52t93.5 33q59 0 167.5 -48t133.5 -48q48 0 152 82z" />
<glyph unicode="&#x1eb0;" horiz-adv-x="1239" d="M53 0l365 1421h407l361 -1419h-201l-92 317h-553l-88 -319h-199zM569 1237l-186 -727h469l-182 727h-101zM281 1827h198q4 -55 44 -88t99.5 -33t99.5 33t44 88h199q-10 -129 -99.5 -207t-243 -78t-242.5 78t-99 207zM305 2267l473 -192l-57 -152l-479 172z" />
<glyph unicode="&#x1ec5;" horiz-adv-x="1038" d="M537 156l376 18l5 -154q-233 -43 -408 -43q-225 2 -321.5 128t-96.5 399q0 541 436 540q215 0 319.5 -114.5t104.5 -358.5l-12 -141h-651q0 -141 57.5 -207.5t190.5 -66.5zM287 582h473q0 158 -53.5 224t-178.5 66q-121 0 -180 -68t-61 -222zM190 1143l261 319h155 l262 -319h-211l-127 157l-129 -157h-211zM819 1776l43 -150q-10 -12 -29.5 -30.5t-69.5 -50.5t-91 -32q-53 0 -164 49.5t-141 49.5q-23 0 -62 -21.5t-67 -42.5l-27 -22l-43 147l33 32q20 19 72.5 52t93.5 33q59 0 167.5 -48t133.5 -48q47 0 151 82z" />
<glyph unicode="&#x1ed7;" horiz-adv-x="1089" d="M543 1044q236 0 341 -131t105 -393q0 -274 -98 -408.5t-348 -134.5q-252 0 -351.5 132.5t-99.5 410.5q0 266 103.5 395t347.5 129zM543 154q150 0 200 85t50 281q0 184 -57.5 267t-192.5 83q-145 0 -199.5 -78.5t-54.5 -271.5q0 -201 51 -283.5t203 -82.5zM195 1143 l260 319h155l262 -319h-210l-127 157l-129 -157h-211zM811 1776l43 -150q-10 -12 -29.5 -30.5t-69.5 -50.5t-91 -32q-53 0 -164 49.5t-142 49.5q-23 0 -61.5 -21.5t-67.5 -42.5l-26 -22l-43 147l33 32q20 19 72 52t93 33q59 0 168 -48t133 -48q48 0 152 82z" />
<glyph unicode="&#x1ef2;" horiz-adv-x="1144" d="M674 608v-608h-199v608l-442 813h221l319 -590l316 590h223zM395 1929l473 -192l-61 -160l-477 170z" />
<glyph unicode="&#x1ef3;" horiz-adv-x="989" d="M39 1022h192l232 -836h61l234 836h192l-401 -1466h-193l121 444h-160zM291 1552l473 -192l-57 -152l-480 172z" />
<glyph unicode="&#x1ef8;" horiz-adv-x="1144" d="M674 608v-608h-199v608l-442 813h221l319 -590l316 590h223zM868 1896l43 -149q-10 -12 -29.5 -30.5t-69.5 -50.5t-91 -32q-53 0 -164 49.5t-141 49.5q-23 0 -62 -21.5t-67 -44.5l-27 -20l-43 147l33 32q20 19 72.5 52t93.5 33q59 0 167.5 -48t133.5 -48q47 -1 151 81z " />
<glyph unicode="&#x1ef9;" horiz-adv-x="989" d="M39 1022h192l232 -836h61l234 836h192l-401 -1466h-193l121 444h-160zM788 1497l43 -149q-10 -12 -29.5 -31t-69.5 -50.5t-91 -31.5q-53 0 -163.5 49t-141.5 49q-23 0 -61.5 -21.5t-65.5 -41.5l-29 -23l-43 148l33 31q20 19 72.5 52t93.5 33q59 0 167.5 -48t133.5 -48 q47 0 151 82z" />
<glyph unicode="&#x2000;" horiz-adv-x="1132" />
<glyph unicode="&#x2001;" horiz-adv-x="2267" />
<glyph unicode="&#x2002;" horiz-adv-x="1132" />
<glyph unicode="&#x2003;" horiz-adv-x="2267" />
<glyph unicode="&#x2004;" horiz-adv-x="755" />
<glyph unicode="&#x2005;" horiz-adv-x="565" />
<glyph unicode="&#x2006;" horiz-adv-x="376" />
<glyph unicode="&#x2007;" horiz-adv-x="376" />
<glyph unicode="&#x2008;" horiz-adv-x="282" />
<glyph unicode="&#x2009;" horiz-adv-x="452" />
<glyph unicode="&#x200a;" horiz-adv-x="124" />
<glyph unicode="&#x2010;" horiz-adv-x="901" d="M135 481v189h631v-189h-631z" />
<glyph unicode="&#x2011;" horiz-adv-x="901" d="M135 481v189h631v-189h-631z" />
<glyph unicode="&#x2012;" horiz-adv-x="901" d="M135 481v189h631v-189h-631z" />
<glyph unicode="&#x2013;" horiz-adv-x="1024" d="M0 645h1024v-176h-1024v176z" />
<glyph unicode="&#x2014;" horiz-adv-x="2048" d="M0 645h2048v-176h-2048v176z" />
<glyph unicode="&#x2018;" horiz-adv-x="348" d="M297 1489l-94 -467h-201l111 467h184z" />
<glyph unicode="&#x2019;" horiz-adv-x="348" d="M49 1079l94 467h201l-111 -467h-184z" />
<glyph unicode="&#x201a;" horiz-adv-x="413" d="M328 238l-95 -467h-200l110 467h185z" />
<glyph unicode="&#x201c;" horiz-adv-x="880" d="M621 1489l-95 -467h-295l111 467h279z" />
<glyph unicode="&#x201d;" horiz-adv-x="890" d="M156 1016l94 467h201l-111 -467h-184zM485 1016l95 467h200l-110 -467h-185z" />
<glyph unicode="&#x201e;" horiz-adv-x="817" d="M723 238l-94 -467h-201l111 467h184zM328 238l-95 -467h-200l110 467h185z" />
<glyph unicode="&#x2020;" d="M117 829v189h329v377h191v-377h330v-189h-330v-981h-191v981h-329z" />
<glyph unicode="&#x2021;" d="M446 -152v377h-329v189h329v415h-329v189h329v377h191v-377h330v-189h-330v-415h330v-189h-330v-377h-191z" />
<glyph unicode="&#x2022;" d="M293 213v582h500v-582h-500z" />
<glyph unicode="&#x2026;" horiz-adv-x="1523" d="M154 0v270h211v-270h-211zM676 0v270h209v-270h-209zM1196 0v270h211v-270h-211z" />
<glyph unicode="&#x202f;" horiz-adv-x="452" />
<glyph unicode="&#x2030;" horiz-adv-x="1705" d="M262 1311q-45 0 -63.5 -38t-18.5 -124q0 -170 82 -170q45 0 63.5 41t18.5 127q0 88 -17.5 126t-64.5 38zM299 4l387 1454l133 -35l-387 -1452zM31 1149q0 287 231.5 287t231.5 -289q0 -145 -60.5 -218t-171.5 -73q-231 0 -231 293zM618 293q0 287 231.5 287t231.5 -287 q0 -145 -60 -219t-171 -74q-232 0 -232 293zM766 293q0 -88 18.5 -128t65.5 -40q45 0 63.5 40t18.5 128t-17.5 126t-64.5 38t-65.5 -39t-18.5 -125zM1145 293q0 287 231.5 287t231.5 -287q0 -145 -60.5 -219t-171 -74t-171 74t-60.5 219zM1294 293q0 -88 18.5 -128t63.5 -40 q47 0 65.5 40t18.5 128q0 86 -18.5 125t-65.5 39q-45 0 -63.5 -39t-18.5 -125z" />
<glyph unicode="&#x2039;" horiz-adv-x="700" d="M541 686l-246 -178l246 -201v-201l-412 324v148l412 307v-199z" />
<glyph unicode="&#x203a;" horiz-adv-x="700" d="M403 520l-243 178v199l411 -307v-148l-411 -323v200z" />
<glyph unicode="&#x205f;" horiz-adv-x="565" />
<glyph unicode="&#x2070;" horiz-adv-x="542" d="M274 1638q127 0 189.5 -77.5t62.5 -264t-62.5 -262.5t-189.5 -76q-125 0 -187 76t-62 264q0 186 62 263t187 77zM274 1495q-45 0 -64.5 -42t-19.5 -156.5t19.5 -154.5t64.5 -40t65.5 41t20.5 155q0 113 -19.5 155t-66.5 42z" />
<glyph unicode="&#x2074;" horiz-adv-x="542" d="M309 979v90h-282v133l120 416h177l-136 -406h121l17 183h141v-183h45v-143h-45v-90h-158z" />
<glyph unicode="&#x2075;" horiz-adv-x="542" d="M86 1618h397v-139h-266l-10 -115q53 27 106 27q195 0 195 -203q0 -113 -59.5 -169t-169.5 -56l-226 26l13 133q113 -20 192 -20q82 0 82 78q0 72 -64 71q-20 0 -42.5 -5t-34.5 -11l-13 -6l-120 14z" />
<glyph unicode="&#x2076;" horiz-adv-x="542" d="M492 1616l-9 -133q-115 14 -180 14q-104 0 -104 -117l16 4l43 10.5t47 6.5q211 0 211 -211q0 -106 -64.5 -169t-168.5 -63q-250 0 -250 326q0 182 62.5 268t203.5 86q33 0 81 -6l79 -10zM281 1268q-20 0 -41 -7.5t-32 -13.5t-11 -8q4 -139 79.5 -139t75.5 88 q0 43 -16 61.5t-55 18.5z" />
<glyph unicode="&#x2077;" horiz-adv-x="542" d="M51 1460v158h436v-174l-206 -483l-179 28l201 436v35h-252z" />
<glyph unicode="&#x2078;" horiz-adv-x="542" d="M272.5 1638q239.5 0 239.5 -178q0 -61 -23.5 -100t-54.5 -47q88 -27 88 -150q0 -113 -63.5 -159t-186 -46t-186 46.5t-63.5 154.5q0 119 88 154q-78 31 -78 149q0 176 239.5 176zM272 1090q84 0 84 75q0 57 -61 82h-47q-61 -27 -62 -84q0 -73 86 -73zM272 1507 q-80 0 -79 -63q0 -51 55 -78h47q55 23 55 78q0 63 -78 63z" />
<glyph unicode="&#x2079;" horiz-adv-x="542" d="M55 983l11 133q94 -14 170 -14q106 0 110 112l-14 -4q-16 -4 -44 -9t-50 -5q-100 0 -153.5 56.5t-53.5 158.5q0 106 64.5 166.5t168.5 60.5q129 0 189.5 -84t60.5 -256q0 -180 -61.5 -260t-198.5 -80zM264 1325l88 25q-4 147 -84 147q-76 0 -75 -86q0 -39 19 -62.5 t52 -23.5z" />
<glyph unicode="&#x2080;" horiz-adv-x="542" d="M274 659q127 0 189.5 -77.5t62.5 -264t-62.5 -262t-189.5 -75.5q-125 0 -187 75.5t-62 263.5q0 186 62 263t187 77zM274 516q-45 0 -64.5 -42t-19.5 -156.5t19.5 -154.5t64.5 -40t65.5 41t20.5 155q0 113 -19.5 155t-66.5 42z" />
<glyph unicode="&#x2081;" horiz-adv-x="542" d="M51 492l211 147h148v-639h-160v463l-125 -84z" />
<glyph unicode="&#x2082;" horiz-adv-x="542" d="M483 0h-442v139l170 158q100 88 100 149q0 59 -92 60l-168 -17l-6 150q131 20 221 20q113 0 162 -45t49 -147q0 -68 -28.5 -117t-92.5 -104l-108 -101h235v-145z" />
<glyph unicode="&#x2083;" horiz-adv-x="542" d="M57 639q127 20 213 20q227 0 228 -174q0 -109 -76 -149q47 -16 68.5 -50t21.5 -106q0 -201 -227 -200l-236 18l8 141q121 -16 201 -16q88 0 88 67.5t-82 67.5h-133v133h131q27 0 47.5 19.5t20.5 48.5q0 57 -82 57l-182 -14z" />
<glyph unicode="&#x2084;" horiz-adv-x="542" d="M309 0v90h-282v133l120 416h177l-136 -406h121l17 183h141v-183h45v-143h-45v-90h-158z" />
<glyph unicode="&#x2085;" horiz-adv-x="542" d="M86 639h397v-139h-266l-10 -115q53 27 106 27q195 0 195 -203q0 -113 -59.5 -169t-169.5 -56l-226 26l13 133q113 -20 192 -20q82 0 82 78q0 72 -64 71q-20 0 -42.5 -5t-34.5 -11l-13 -6l-120 14z" />
<glyph unicode="&#x2086;" horiz-adv-x="542" d="M492 637l-9 -133q-115 14 -180 14q-104 0 -104 -117l16 5q16 4 43 10t47 6q211 0 211 -211q0 -106 -64.5 -168.5t-168.5 -62.5q-250 0 -250 325q0 182 62.5 268t203.5 86q33 0 81 -6l79 -10zM281 289q-20 0 -41 -7.5t-32 -13.5t-11 -8q4 -139 79.5 -139t75.5 88 q0 43 -16 61.5t-55 18.5z" />
<glyph unicode="&#x2087;" horiz-adv-x="542" d="M51 481v158h436v-174l-206 -483l-179 28l201 436v35h-252z" />
<glyph unicode="&#x2088;" horiz-adv-x="542" d="M272.5 659q239.5 0 239.5 -178q0 -61 -23.5 -100t-54.5 -47q88 -27 88 -150q0 -113 -63.5 -158.5t-186 -45.5t-186 46t-63.5 154q0 119 88 154q-78 31 -78 149q0 176 239.5 176zM272 111q84 0 84 75q0 57 -61 82h-47q-61 -27 -62 -84q0 -73 86 -73zM272 528 q-80 0 -79 -63q0 -51 55 -78h47q55 23 55 78q0 63 -78 63z" />
<glyph unicode="&#x2089;" horiz-adv-x="542" d="M55 4l11 133q94 -14 170 -14q106 0 110 113l-14 -5q-16 -4 -44 -9t-50 -5q-100 0 -153.5 56.5t-53.5 158.5q0 106 64.5 166.5t168.5 60.5q129 0 189.5 -83.5t60.5 -256.5q0 -180 -61.5 -259.5t-198.5 -79.5zM264 346l88 25q-4 147 -84 147q-76 0 -75 -86q0 -39 19 -62.5 t52 -23.5z" />
<glyph unicode="&#x20ac;" horiz-adv-x="1163" d="M88 918h125q29 246 141.5 354t360.5 108l362 -39l-8 -178q-199 23 -330 23q-158 0 -227.5 -61.5t-89.5 -209.5h512v-153h-524q-2 -27 -2 -86.5t2 -85.5h524v-156h-512q20 -141 91 -201.5t230 -60.5l326 23l6 -181q-199 -37 -360 -37q-254 0 -364.5 108t-137.5 349h-125 v156h115v172h-115v156z" />
<glyph unicode="&#x2122;" d="M14 1178v122h410v-122h-119v-498h-135v498h-156zM483 678v622h168l119 -393l127 393h166v-622h-127v426l-115 -391h-96l-115 391v-426h-127z" />
<glyph unicode="&#x2211;" horiz-adv-x="1705" />
<glyph unicode="&#x2212;" d="M80 502v176h921v-176h-921z" />
<glyph unicode="&#x221e;" horiz-adv-x="1091" d="M315 248q-266 0 -266 348q0 352 262 352q86 0 138.5 -39t95.5 -125q43 86 95 125t138 39q129 0 195.5 -90t66.5 -260q0 -350 -266 -350q-82 0 -134 38t-93 122q-43 -92 -93.5 -126t-138.5 -34zM618 598q6 -12 22.5 -50t24 -50.5t24 -33t33.5 -27.5t42 -7q96 0 96 166 q0 170 -96 170q-20 0 -37.5 -7t-28 -14.5t-23.5 -29t-18.5 -31.5t-19 -42t-19.5 -44zM471 598q-6 12 -19.5 44t-18.5 42t-18.5 31.5t-23.5 29t-27.5 14.5t-37.5 7q-94 0 -95 -170q0 -166 95 -166q25 0 42 7t33.5 27.5t23.5 33t23.5 50.5t22.5 50z" />
<glyph unicode="&#x2248;" d="M942 926l16 -185q-12 -12 -32.5 -30.5t-79 -48t-113.5 -29.5q-61 0 -198.5 49t-178.5 49q-88 0 -211 -92l-18 184q12 12 34.5 30.5t85 48.5t120.5 30q59 0 194 -49t180 -49q78 0 201 92zM942 516l16 -184q-12 -12 -32.5 -30.5t-79 -48.5t-113.5 -30q-61 0 -198.5 49.5 t-178.5 49.5q-88 0 -211 -93l-18 185q12 12 34.5 30.5t85 48t120.5 29.5q59 0 194 -49t180 -49q78 0 201 92z" />
<glyph unicode="&#x2260;" d="M76 688v178h506l139 312l162 -64l-111 -248h236v-178h-314l-106 -242h420v-176h-498l-135 -311l-162 64l109 247h-246v176h323l105 242h-428z" />
<glyph unicode="&#x2264;" d="M907 911l-567 -180l567 -194v-205l-755 270v250l755 264v-205zM152 53v193h755v-193h-755z" />
<glyph unicode="&#x2265;" d="M758 731l-580 180v205l768 -264v-250l-768 -270v205zM178 53v193h768v-193h-768z" />
<glyph unicode="&#xe000;" horiz-adv-x="1020" d="M0 1020h1020v-1020h-1020v1020z" />
<glyph horiz-adv-x="481" />
<glyph horiz-adv-x="1101" d="M631 1042q203 0 275.5 -115.5t72.5 -391.5q0 -301 -96.5 -427t-370.5 -126l-305 18v1495h72v-534q170 81 352 81zM510 47q127 0 206 27.5t120 93t54 147.5t13 215q0 244 -54 345.5t-218 101.5q-82 0 -170 -20.5t-135 -41.5l-47 -20v-836q159 -12 231 -12z" />
<glyph horiz-adv-x="1284" d="M211 1434h491q209 0 311.5 -84t102.5 -265q0 -272 -198 -346q254 -70 253 -338q0 -221 -110.5 -311t-319.5 -90h-530v1434zM725 698h-440v-628h456q170 0 262.5 74.5t92.5 256.5q0 297 -371 297zM702 1364h-417v-598h440q164 0 239.5 80t75.5 239q0 147 -82 213t-256 66z " />
<glyph horiz-adv-x="983" d="M72 1024h75l299 -958h89l301 958h75l-321 -1024h-201z" />
<glyph horiz-adv-x="933" d="M424 512l-346 512h82l307 -457l307 457h82l-346 -512l346 -512h-84l-305 457l-305 -457h-84z" />
<glyph d="M926 1333l-8 -67q-147 37 -320 37q-209 0 -317.5 -135.5t-108.5 -446.5q0 4 57.5 31.5t155.5 57.5t178 30q428 0 428 -414q0 -444 -438 -444q-236 0 -347.5 178t-111.5 530q0 369 130 525.5t374 156.5zM559 770q-180 -6 -385 -119l-4 -2q4 -299 94 -448.5t289 -149.5 q195 0 277.5 92.5t82.5 282.5q0 166 -79.5 255t-274.5 89z" />
<glyph d="M152 25l12 65q168 -39 340 -39q207 0 309 138.5t102 453.5q0 -4 -57 -31.5t-155.5 -57.5t-178.5 -30q-217 0 -322.5 108.5t-105.5 295.5q0 211 113 327.5t334 116.5q231 0 339.5 -177t108.5 -531q0 -371 -123 -526.5t-364 -155.5q-76 0 -164 11t-139 21zM528 594 q180 6 385 119l5 2q-10 588 -375 588q-369 0 -369 -375q0 -152 86 -243t268 -91z" />
<glyph horiz-adv-x="1337" d="M797 0h-586v1434h586q121 0 209 -72t130 -186.5t60 -223t18 -215.5q0 -80 -7 -159.5t-32.5 -189t-67.5 -191.5t-123 -139.5t-187 -57.5zM1137 737q0 70 -14.5 161t-47.5 203.5t-105.5 187.5t-172.5 75h-512v-1294h512q90 0 157.5 57t101.5 133t53 180.5t23.5 169 t4.5 127.5z" />
<glyph d="M983 0h-772v1434h74v-1364h698v-70z" />
<glyph horiz-adv-x="0" />
<glyph d="M276 1438q111 0 164.5 -64.5t53.5 -210.5q0 -283 -218 -282q-111 0 -164 68.5t-53 215.5q0 143 52 208t165 65zM852 557q111 0 164 -64.5t53 -209.5q0 -283 -217 -283q-111 0 -164 68.5t-53 216.5q0 143 52 207.5t165 64.5zM381 12l295 1424l74 -15l-295 -1423zM131 1165 q0 -111 33 -165t112 -54q82 0 114 53.5t32 163.5q0 109 -32 159t-114 50q-80 0 -112.5 -50.5t-32.5 -156.5zM707 285q0 -111 32.5 -165t112.5 -54q82 0 113.5 53t31.5 164q0 109 -31.5 159t-113.5 50q-80 0 -112.5 -50.5t-32.5 -156.5z" />
<glyph d="M889 1063h-281l86 -264l-65 -21l-86 266l-226 -161l-38 55l225 164l-223 164l41 55l225 -166l86 264l65 -20l-86 -266h277v-70z" />
<glyph horiz-adv-x="532" d="M209 1536h72q-23 -59 -54.5 -158.5t-86 -344.5t-54.5 -417q0 -342 178 -829l17 -43h-72q-23 51 -55.5 139t-88 319.5t-55.5 414t50.5 411.5t99.5 369z" />
<glyph horiz-adv-x="532" d="M63 -246h-71q23 59 54.5 158.5t85.5 344.5t54 417q0 342 -178 829l-16 43h71q23 -51 56 -139t88 -319.5t55 -413.5t-49 -411.5t-98 -368.5z" />
<glyph horiz-adv-x="583" d="M285 346l-15 -237q0 -147 62.5 -218t230.5 -79l-4 -66q-195 8 -277.5 93t-82.5 270q0 43 7 136t7 115q0 100 -48 154.5t-165 87.5v66q117 29 165 86t48 159q0 27 -7 124.5t-7 138.5q0 184 83 269t277 93l4 -65q-168 -8 -230.5 -79t-62.5 -218q0 -35 7.5 -125t7.5 -119 q0 -133 -45 -195.5t-160 -99.5q115 -37 160 -100.5t45 -190.5z" />
<glyph horiz-adv-x="1933" d="M672 -18q-164 0 -272.5 45t-169 142t-84 225t-23.5 317q0 377 118.5 559t430.5 182q221 0 301 -18h837v-74h-763v-586h641v-74h-641v-626h763v-74h-833v-2q-72 -16 -305 -16zM672 51q217 0 301 19v1288q-80 25 -301 24q-143 0 -237.5 -43t-144.5 -134t-69.5 -206.5 t-19.5 -287.5q0 -174 18.5 -287t68.5 -202t144.5 -130t239.5 -41zM975 1358h-2l2 -680v680z" />
<glyph horiz-adv-x="1705" d="M848 0v434h-379v66h379v477h-379v65h379v392h72v-392h378v-65h-378v-477h378v-66h-378v-434h-72z" />
<glyph horiz-adv-x="790" d="M760 1128q0 -92 -42 -173t-101.5 -139l-120 -111.5t-102.5 -114t-42 -123.5v-78h-71v84q0 70 42 136.5t102 121.5l120 113q59 57 101 131t42 153q0 141 -83 198.5t-255 57.5l-330 -57l-10 70q229 55 340 55q203 0 306.5 -75t103.5 -249zM276 2v164h82v-164h-82z" />
<glyph horiz-adv-x="288" d="M51 705v163h82v-163h-82zM51 0v164h82v-164h-82z" />
<glyph horiz-adv-x="348" d="M-12 -252l84 430h86l-107 -430h-63zM66 705v163h81v-163h-81z" />
<glyph horiz-adv-x="614" d="M473 1534v-66h-301v-1654h301v-66h-373l-2 1786h375z" />
<glyph horiz-adv-x="614" d="M104 1468v66h375l-2 -1786h-373v66h302v1654h-302z" />
<glyph horiz-adv-x="204" d="M-37 942l-4 471h244l-10 -471h-230z" />
<glyph horiz-adv-x="727" d="M72 942l-4 471h243l-10 -471h-229zM395 942l-4 471h244l-10 -471h-230z" />
<glyph horiz-adv-x="1433" d="M621 1421q160 0 236.5 -79.5t76.5 -217.5q0 -147 -78 -230t-260 -142l383 -379q41 119 63 299h72q-29 -221 -80 -353l287 -280l-49 -53l-268 266q-135 -270 -455 -270q-258 0 -364.5 112.5t-106.5 331.5q0 182 77.5 271t256.5 141q-66 72 -85.5 133t-19.5 155 q0 133 80 214t234 81zM553 49q281 0 397 254l-485 481q-176 -47 -245.5 -122.5t-69.5 -233.5q0 -190 94 -284.5t309 -94.5zM379 1126q0 -160 92 -252l74 -73q178 61 247.5 128.5t69.5 196.5q0 229 -241.5 229t-241.5 -229z" />
<glyph horiz-adv-x="1167" d="M948 1368v-65q-178 25 -246 24q-111 0 -159.5 -62.5t-48.5 -238.5v-195h372v-65h-372v-696h356l168 32l14 -65l-166 -35l-633 -2v70h189v696h-141v65h141v195q0 213 66.5 290t213.5 77z" />
<glyph horiz-adv-x="1214" d="M139 874h131q20 262 131 387t373 125q195 0 359 -38l-7 -72q-186 41 -352 41q-227 0 -318 -106.5t-108 -336.5l637 -2v-67h-641q-2 -41 -2 -127q0 -74 2 -107l641 -2v-67h-639q16 -236 107.5 -343.5t320.5 -107.5l352 41l7 -69q-197 -41 -359 -41q-262 0 -373.5 124.5 t-130.5 395.5h-131v69h127q-2 33 -2 107q0 86 2 127h-127v69z" />
<glyph horiz-adv-x="1705" d="M1192 29l-72 -29l-616 1407l71 29z" />
<glyph horiz-adv-x="1064" d="M55 -70h877v-69h-877v69z" />
<glyph horiz-adv-x="1259" d="M733 526h-448v-526h-74v1434h522q217 0 320.5 -102.5t103.5 -330.5q0 -229 -96.5 -352t-327.5 -123zM285 596h448q346 0 346 405q0 188 -85 275.5t-261 87.5h-448v-768z" />
<glyph d="M6 684v74h688v-74h-688zM309 989v164h82v-164h-82zM309 285v164h82v-164h-82z" />
<glyph horiz-adv-x="839" d="M-100 479v70h475v475h74v-475h479v-70h-479v-479h-74v479h-475z" />
<glyph horiz-adv-x="901" d="M123 541v69h655v-69h-655z" />
<glyph d="M840 1065l-645 -422l645 -444v-84q-641 436 -711 487v74l711 469v-80z" />
<glyph d="M2 702v70h1034v-70h-1034zM4 356v70h1034v-70h-1034z" />
<glyph d="M774 643l-645 422v80l711 -469v-74l-711 -487v84z" />
<glyph d="M94 25l568 1413l67 -29l-567 -1411z" />
<glyph horiz-adv-x="1794" d="M1266 47l372 19l4 -66q-229 -18 -378 -18q-268 2 -346 219q-37 -115 -125 -167t-250 -52q-250 0 -335 118.5t-85 434.5q0 283 95 395t325 112q299 0 377 -245q90 246 372 245q195 0 292 -116.5t97 -374.5v-68h-727q0 -221 70 -328.5t242 -107.5zM543 47q111 0 179.5 27.5 t102 94.5t44 146.5t10.5 214.5q0 242 -81 344.5t-255 102.5q-199 0 -271.5 -93t-72.5 -349q0 -143 11 -226.5t48 -148t104.5 -89t180.5 -24.5zM954 549h652q0 231 -75 329.5t-239 98.5q-338 0 -338 -428z" />
<glyph horiz-adv-x="1839" d="M879 0v440h-566l-159 -440h-82l514 1434h1130v-70h-764v-590h641v-69h-641v-635h764v-70h-837zM643 1364l-305 -854h541v854h-236z" />
<glyph horiz-adv-x="1343" d="M182 -201l123 264q-117 78 -164 236t-47 412q0 377 119 559t430 182q168 0 287 -57l106 227l68 -29l-113 -237q111 -86 156 -244t45 -401q0 -391 -115.5 -560t-433.5 -169q-162 0 -274 47l-119 -256zM172 711q0 -229 36 -368.5t130 -211.5l559 1196q-98 55 -254 55 q-143 0 -237.5 -43t-144.5 -134t-69.5 -206.5t-19.5 -287.5zM643.5 51q147.5 0 240.5 38t143 125t68.5 201.5t18.5 295.5q0 430 -156 573l-559 -1190q97 -43 244.5 -43z" />
<glyph horiz-adv-x="1695" d="M1167 47l373 19l4 -66q-229 -18 -379 -18q-203 2 -293 118l-77 -32q-190 -86 -422 -86q-260 0 -260 299q0 143 63.5 206.5t218.5 87.5l389 41v107q0 250 -227 250l-385 -19l-4 68q225 20 389 20q236 0 285 -196q100 197 352 196q195 0 292 -116.5t97 -374.5v-68h-727 q0 -221 69.5 -328.5t241.5 -107.5zM375 47q86 0 198.5 24.5t173 45t95.5 35.5q-61 121 -62 360v37l-377 -37q-113 -10 -164 -65.5t-51 -165.5q0 -113 49.5 -173.5t137.5 -60.5zM856 549h651q0 231 -74.5 329.5t-238.5 98.5q-338 0 -338 -428z" />
<glyph d="M539 1042q211 0 327.5 -123.5t116.5 -422.5q0 -283 -116.5 -398.5t-327.5 -115.5q-207 0 -326 115.5t-119 400.5q1 544 445 544zM539 874q-131 0 -197 -79.5t-66 -296.5q0 -199 66 -273.5t197 -74.5q135 0 198.5 73.5t63.5 274.5q0 219 -63.5 297.5t-198.5 78.5z" />
<glyph d="M178 786l404 238h157v-1024h-182v815l-309 -176z" />
<glyph d="M950 0h-780v160l322 256q137 104 190 167.5t53 139.5q0 82 -55 113.5t-184 31.5q-39 0 -117 -8t-137.5 -15t-59.5 -9l-12 165q227 41 383 41q377 0 377 -297q0 -121 -56.5 -198.5t-187.5 -173.5l-260 -205h524v-168z" />
<glyph d="M207 1006q219 39 375 38q184 0 279 -59t95 -197q0 -154 -149 -237q-6 -2 -8 -4q188 -68 188 -254q0 -156 -105.5 -233.5t-285.5 -77.5q-76 0 -177.5 10t-164.5 20l-64 11l23 167q217 -29 383 -28q111 0 160 34.5t49 110.5q0 135 -209 139h-262v162h260q76 2 128 35 t52 102q0 125 -190 125l-361 -28z" />
<glyph d="M680 -27v211h-557v135l299 705h192l-290 -668h356v262h182v-262h101v-172h-101v-211h-182z" />
<glyph d="M223 1030h725v-188h-559l-27 -244q123 55 240 55q184 0 285.5 -79.5t101.5 -239.5q0 -168 -104.5 -260t-296.5 -92q-76 0 -182.5 13t-174.5 25l-67 15l20 168q250 -45 398 -45q209 0 209 168q0 156 -211 155q-106 0 -256 -59l-142 27z" />
<glyph d="M924 1012l-15 -154q-193 23 -323 23q-125 0 -192.5 -66.5t-67.5 -228.5q0 2 44 18.5t110.5 33.5t113.5 17q387 0 387 -333q0 -162 -118 -252t-310 -90q-203 0 -306.5 130t-103.5 410q0 274 120 398t323 124zM578 485q-47 0 -111 -13t-102 -26l-39 -12q6 -295 239.5 -295 t233.5 183q0 163 -221 163z" />
<glyph d="M158 864v160h719v-207l-426 -835l-158 43l409 796v43h-544z" />
<glyph d="M530 1042q399 0 400 -276q0 -160 -166 -229q94 -43 140 -96.5t46 -164.5q0 -297 -420 -296q-190 0 -302.5 70.5t-112.5 219.5q0 109 45 166.5t133 100.5q-158 74 -158 229q0 276 395 276zM530 139q117 0 177.5 34t60.5 118q0 74 -40 107.5t-124 58.5h-153 q-80 -25 -117 -63t-37 -109q0 -146 233 -146zM530 883q-213 0 -213 -131q0 -63 32 -97t102 -57h153q72 20 108 56t36 100q-1 129 -218 129z" />
<glyph d="M166 20l16 154q162 -29 314 -29q252 0 252 297q-119 -57 -254 -57q-369 0 -369 315q0 162 107.5 253t287.5 91q414 0 414 -530q0 -532 -438 -532q-78 0 -161 9t-126 19zM508 543q55 2 113.5 16t89.5 27l30 14q-6 283 -227 283q-207 0 -207 -181q0 -76 51.5 -117.5 t149.5 -41.5z" />
<glyph d="M496 -121v1555h71v-1555h-71z" />
<glyph horiz-adv-x="894" d="M381 -176v260q-188 10 -272 100t-84 322q0 399 356 434v270h72v-266l237 -22l-4 -72q-154 18 -233 20v-712l237 16l4 -72q-162 -18 -241 -18v-260h-72zM106 506q0 -195 59.5 -266.5t215.5 -79.5v706q-137 -14 -206 -100t-69 -260z" />
<glyph d="M125 696v70h506l147 334l72 -29l-135 -305h280v-70h-311l-135 -309h448v-70h-479l-147 -337l-72 28l135 309h-307v70h338l135 309h-475z" />
<glyph horiz-adv-x="1105" d="M96 678v70h350l-395 604h84l420 -633l414 633h86l-391 -604h344v-70h-390l-26 -41v-195h418v-69h-418v-373h-74v373h-420v69h420v195l-26 41h-396z" />
<glyph d="M184 -512v1536h72v-528q0 -270 49 -359.5t215 -89.5q172 0 332 100l4 3v874h72v-1024h-72v82l-49 -28q-31 -17 -120 -44.5t-167 -27.5q-193 0 -264 104v-598h-72z" />
<glyph d="M592 721v-856q0 -199 -64.5 -283t-195.5 -84l-189 6l4 68q127 -6 185 -6q94 0 141 68.5t47 230.5v856h-141v65h141v228q0 365 260 364l191 -6l-4 -65q-125 4 -187 4q-188 0 -188 -299v-226h332v-65h-332z" />
<glyph horiz-adv-x="348" d="M-12 -252l86 430h82l-105 -430h-63z" />
<glyph horiz-adv-x="507" d="M201 0v164h82v-164h-82z" />
<glyph horiz-adv-x="348" d="M8 1079l82 410h78l-98 -410h-62z" />
<glyph horiz-adv-x="1705" d="M1061 0v1366h-352v-1366h-74v717h-14q-162 0 -271.5 99t-109.5 257t109.5 259.5t271.5 101.5h712v-68h-198v-1366h-74z" />
<glyph horiz-adv-x="583" d="M276 930l15 237q0 147 -62.5 218t-230.5 79l4 66q195 -8 277.5 -93t82.5 -270q0 -43 -7 -136t-7 -116q0 -100 48 -154t165 -87v-66q-117 -29 -165 -86t-48 -160q0 -27 7 -124t7 -138q0 -184 -82.5 -269t-277.5 -93l-4 65q168 8 230.5 79t62.5 218q0 35 -7.5 125t-7.5 119 q0 133 45.5 195.5t159.5 99.5q-115 37 -160 100.5t-45 190.5z" />
<glyph horiz-adv-x="348" d="M115 1489l-82 -410h-78l98 410h62z" />
<glyph horiz-adv-x="0" d="M682 1376q489 0 489 -342q0 -39 -3 -69.5t-17 -59t-20.5 -43t-33.5 -42.5l-34 -34q-6 -6 -46 -37.5t-46 -35.5q14 -12 62 -48t64.5 -53.5t45 -55.5t39 -83t10.5 -106q0 -215 -133 -303.5t-377 -88.5q-504 0 -504 369q0 55 10.5 101.5t22.5 75t40 60t43 46t54 44t53 42.5 l-41 32q-31 25 -39 33l-33 30q-24 22 -31 34t-22.5 35.5t-19.5 45.5l-9 50q-5 29 -5 63q0 340 481 340zM682 266q207 0 207 152q0 102 -113 155h-180q-66 -31 -90.5 -67.5t-24.5 -87.5q0 -152 201 -152zM686.5 1085q-104.5 0 -143.5 -29.5t-39 -92.5q0 -14 1 -24.5t6 -21 t8 -15.5t13.5 -14t15.5 -12.5t22.5 -14.5t25.5 -17h180q8 6 22.5 15t19.5 13.5t15.5 11.5t13.5 12t9 12t7 14.5t3 17.5t2 23q0 66 -38.5 94t-143 28z" />
<glyph horiz-adv-x="733" d="M438 1309v-287h252v-248h-252v-387q0 -61 3 -87t22.5 -44t60.5 -18l156 4l12 -236q-137 -31 -209 -31q-184 0 -251.5 83t-67.5 307v409h-121v248h121v266z" />
<glyph horiz-adv-x="901" d="M123 461v229h655v-229h-655z" />
<glyph horiz-adv-x="507" d="M92 0v291h270v-291h-270z" />
<glyph d="M2 641v270h1034v-270h-1034zM2 217v270h1036v-270h-1036z" />
<glyph horiz-adv-x="1064" d="M55 31h877v-271h-877v271z" />
<glyph horiz-adv-x="694" d="M518 350q0 -29 -7 -105.5t-7 -111.5q0 -84 26.5 -116.5t118.5 -41.5v-229q-223 8 -312 94t-89 273q0 43 7 136t7 116q0 121 -213 180v188q213 53 213 185q0 27 -7 124t-7 138q0 186 89 268t312 90v-229q-94 -8 -119.5 -38t-25.5 -112q0 -35 7 -114.5t7 -108.5 q0 -135 -45 -195.5t-160 -99.5q117 -39 161 -98.5t44 -192.5z" />
<glyph horiz-adv-x="583" d="M-88 926q0 29 7 105.5t7 111.5q0 84 -26.5 116.5t-118.5 40.5v230q223 -8 312 -94t89 -273q0 -43 -7 -136t-7 -116q0 -121 213 -180v-188q-213 -53 -213 -185q0 -27 7 -124t7 -138q0 -186 -89 -268t-312 -90v229q94 8 119.5 38t25.5 112q0 35 -7 114.5t-7 108.5 q0 135 45 195.5t160 99.5q-117 39 -161 98.5t-44 192.5z" />
<glyph horiz-adv-x="839" d="M-100 389v250h387v385h250v-385h391v-250h-391v-389h-250v389h-387z" />
<glyph horiz-adv-x="542" d="M274 455q127 0 189.5 -78t62.5 -264.5t-62.5 -262t-189.5 -75.5q-125 0 -187 75.5t-62 264.5q0 186 62 263t187 77zM274 311q-45 0 -64.5 -42t-19.5 -156.5t19.5 -154.5t64.5 -40t65.5 41t20.5 156q0 113 -19.5 154.5t-66.5 41.5z" />
<glyph horiz-adv-x="542" d="M51 287l211 147h148v-639h-160v463l-125 -84z" />
<glyph horiz-adv-x="542" d="M483 -205h-442v139l170 158q100 88 100 150q0 59 -92 59l-168 -16l-6 149q131 20 221 21q113 0 162 -45t49 -148q0 -68 -28.5 -117t-92.5 -104l-108 -100h235v-146z" />
<glyph horiz-adv-x="542" d="M57 434q127 20 213 21q227 0 228 -174q0 -109 -76 -150q47 -16 68.5 -50t21.5 -106q0 -201 -227 -200l-236 18l8 141q121 -16 201 -16q88 0 88 67.5t-82 67.5h-133v133h131q27 0 47.5 19.5t20.5 48.5q0 57 -82 57l-182 -14z" />
<glyph horiz-adv-x="542" d="M309 -205v90h-282v133l120 416h177l-136 -405h121l17 182h141v-182h45v-144h-45v-90h-158z" />
<glyph horiz-adv-x="542" d="M86 434h397v-139h-266l-10 -115q53 27 106 27q195 0 195 -203q0 -113 -59.5 -169t-169.5 -56l-226 26l13 134q113 -20 192 -21q82 0 82 78q0 72 -64 72q-20 0 -42.5 -5.5t-34.5 -11.5l-13 -6l-120 14z" />
<glyph horiz-adv-x="542" d="M492 432l-9 -133q-115 14 -180 14q-104 0 -104 -116l16 4l43 10q27 6 47 6q211 0 211 -211q0 -106 -64.5 -168.5t-168.5 -62.5q-250 0 -250 325q0 182 62.5 268.5t203.5 86.5q33 0 81 -6l79 -11zM281 84q-20 0 -41 -7t-32 -13.5t-11 -8.5q4 -139 79.5 -139t75.5 88 q0 43 -16 61.5t-55 18.5z" />
<glyph horiz-adv-x="542" d="M51 276v158h436v-174l-206 -483l-179 28l201 437v34h-252z" />
<glyph horiz-adv-x="542" d="M272.5 455q239.5 0 239.5 -179q0 -61 -23.5 -100t-54.5 -47q88 -27 88 -149q0 -113 -63.5 -159t-186 -46t-186 46t-63.5 154q0 119 88 154q-78 31 -78 150q0 176 239.5 176zM272 -94q84 0 84 76q0 57 -61 81h-47q-61 -27 -62 -83q0 -74 86 -74zM272 324q-80 0 -79 -64 q0 -51 55 -78h47q55 23 55 78q0 64 -78 64z" />
<glyph horiz-adv-x="542" d="M55 -201l11 133q94 -14 170 -14q106 0 110 113l-14 -4q-16 -4 -44 -9.5t-50 -5.5q-100 0 -153.5 56.5t-53.5 158.5q0 106 64.5 167t168.5 61q129 0 189.5 -84t60.5 -256q0 -180 -61.5 -260t-198.5 -80zM264 141l88 25q-4 147 -84 147q-76 0 -75 -86q0 -39 19 -62.5 t52 -23.5z" />
<glyph horiz-adv-x="1523" d="M154 0v270h211v-270h-211zM676 0v270h209v-270h-209zM1196 0v270h211v-270h-211z" />
<glyph horiz-adv-x="790" d="M14 -63q0 98 39 180t95.5 133t112.5 95t95 91t39 94v78h205v-84q0 -74 -39 -136t-94 -107l-110 -91q-54 -45 -93 -103t-39 -128q0 -106 51.5 -150.5t186.5 -44.5l313 46l25 -189q-236 -57 -346 -57q-229 0 -335 85t-106 288zM602 1022v-270h-209v270h209z" />
<glyph horiz-adv-x="790" d="M23 350q0 98 38.5 180t95 133.5t113 95.5t95 91t38.5 94v78h205v-84q0 -74 -39 -136.5t-94 -107.5l-109 -90q-54 -45 -93.5 -103.5t-39.5 -127.5q0 -106 51.5 -150.5t186.5 -44.5l313 45l25 -188q-236 -57 -346 -58q-229 0 -334.5 85t-105.5 288zM610 1436v-271h-209v271 h209z" />
<glyph horiz-adv-x="790" d="M23 350q0 98 38.5 180t95 133.5t113 95.5t95 91t38.5 94v78h205v-84q0 -74 -39 -136.5t-94 -107.5l-109 -90q-54 -45 -93.5 -103.5t-39.5 -127.5q0 -106 51.5 -150.5t186.5 -44.5l313 45l25 -188q-236 -57 -346 -58q-229 0 -334.5 85t-105.5 288zM610 1436v-271h-209v271 h209z" />
<glyph horiz-adv-x="1024" d="M0 707h1024v-177h-1024v177z" />
<glyph horiz-adv-x="2048" d="M0 707h2048v-177h-2048v177z" />
<glyph horiz-adv-x="507" d="M135 549v270h211v-270h-211z" />
<glyph d="M659 1186v-271h-208v271h208zM653 692l6 -940h-208l6 940h196z" />
<glyph horiz-adv-x="532" d="M250 1597h209q-23 -59 -54.5 -158.5t-86 -344t-54.5 -416.5q0 -342 178 -830l17 -43h-209q-23 51 -55.5 139.5t-88 320t-55.5 413.5t50.5 411.5t99.5 368.5z" />
<glyph horiz-adv-x="532" d="M250 -184h-209q23 59 54.5 158.5t86 344t54.5 416.5q0 342 -179 830l-16 43h209q23 -51 55.5 -139.5t88 -319.5t55.5 -413.5t-50.5 -412t-99.5 -368.5z" />
<glyph horiz-adv-x="614" d="M535 1595v-188h-263v-1409h263v-188h-459l-2 1785h461z" />
<glyph horiz-adv-x="614" d="M70 1407v188h460l-2 -1785h-458v188h262v1409h-262z" />
<glyph horiz-adv-x="649" d="M436 412q0 -33 -7 -118t-7 -122q0 -96 42 -138t163 -50l-2 -189q-217 8 -313.5 91t-96.5 266q0 43 7 135t7 114q0 84 -44 134.5t-156 82.5v164q115 29 157.5 77t42.5 132q0 27 -7 123t-7 137q0 188 95.5 270.5t314.5 90.5l2 -189q-121 -8 -163 -48t-42 -136q0 -35 7 -130 t7 -124q0 -125 -45 -185.5t-160 -97.5q113 -37 159 -102t46 -188z" />
<glyph horiz-adv-x="649" d="M205 987q0 33 7 118t7 122q0 96 -42 138t-163 50l2 189q217 -8 313.5 -91t96.5 -266q0 -43 -7 -135t-7 -115q0 -84 44 -134t156 -83v-164q-115 -29 -157.5 -76.5t-42.5 -131.5q0 -27 7 -123.5t7 -137.5q0 -188 -95 -270t-315 -90l-2 188q121 8 163 48t42 137q0 35 -7 130 t-7 124q0 125 45 185t160 97q-113 37 -159 102.5t-46 188.5z" />
<glyph horiz-adv-x="505" d="M82 1929l473 -192l-61 -160l-478 170z" />
<glyph horiz-adv-x="505" d="M92 1929l473 -192l-61 -160l-477 170z" />
<glyph horiz-adv-x="505" d="M10 1751l473 191l68 -181l-479 -172z" />
<glyph horiz-adv-x="505" d="M14 1751l473 191l68 -181l-479 -172z" />
<glyph horiz-adv-x="962" d="M90 1628l270 285h177l270 -285h-221l-135 131l-136 -131h-225z" />
<glyph horiz-adv-x="505" d="M-66 1628l271 285h176l270 -285h-221l-135 131l-135 -131h-226z" />
<glyph horiz-adv-x="505" d="M639 1909l-270 -285h-174l-273 285h223l138 -135l133 135h223z" />
<glyph horiz-adv-x="505" d="M635 1909l-270 -285h-175l-272 285h223l138 -135l133 135h223z" />
<glyph horiz-adv-x="505" d="M623 1905l45 -150q-12 -14 -33 -34.5t-74 -54.5t-94 -34q-53 0 -180 53.5t-158 53.5q-51 0 -164 -94l-43 149q12 14 33.5 34.5t76 55.5t95.5 35q61 0 186 -52t150 -52q47 0 160 90z" />
<glyph horiz-adv-x="505" d="M623 1905l45 -150q-12 -14 -33 -34.5t-74 -54.5t-94 -34q-53 0 -180 53.5t-158 53.5q-51 0 -164 -94l-43 149q12 14 33.5 34.5t76 55.5t95.5 35q61 0 186 -52t150 -52q47 0 160 90z" />
<glyph horiz-adv-x="505" d="M-43 1663v213h184v-213h-184zM389 1663v213h186v-213h-186z" />
<glyph horiz-adv-x="505" d="M-43 1663v213h184v-213h-184zM389 1663v213h186v-213h-186z" />
<glyph horiz-adv-x="505" d="M-47 1655v168h661v-168h-661z" />
<glyph horiz-adv-x="505" d="M-47 1655v168h661v-168h-661z" />
<glyph horiz-adv-x="505" d="M-49 1901h199q4 -55 43.5 -88t99 -33t99.5 32.5t44 88.5h199q-10 -129 -99.5 -207t-243 -78t-242.5 78t-99 207z" />
<glyph horiz-adv-x="505" d="M-49 1901h199q4 -55 43.5 -88t99 -33t99.5 32.5t44 88.5h199q-10 -129 -99.5 -207t-243 -78t-242.5 78t-99 207z" />
<glyph horiz-adv-x="505" d="M545 1558.5q0 -106.5 -75 -168t-189.5 -61.5t-188.5 61.5t-74 168.5q0 109 74 170t188.5 61t189.5 -62.5t75 -169zM172 1559q0 -90 109 -91q111 0 110 91q0 43 -29.5 67.5t-81 24.5t-80 -24.5t-28.5 -67.5z" />
<glyph horiz-adv-x="505" d="M530 1558.5q0 -106.5 -74.5 -168t-189 -61.5t-188.5 61.5t-74 168.5q0 109 74 170t188.5 61t189 -62.5t74.5 -169zM158 1559q0 -90 108 -91q111 0 111 91q0 43 -30 67.5t-81 24.5t-79.5 -24.5t-28.5 -67.5z" />
<glyph horiz-adv-x="505" d="M342 1612l238 313l168 -78l-254 -307zM-84 1614l240 313l168 -80l-254 -305z" />
<glyph horiz-adv-x="505" d="M342 1612l238 313l168 -78l-254 -307zM-84 1614l240 313l168 -80l-254 -305z" />
<glyph horiz-adv-x="505" d="M156 1595v211h194v-211h-194z" />
<glyph horiz-adv-x="505" d="M156 1595v211h194v-211h-194z" />
<glyph horiz-adv-x="542" d="M274 1434q127 0 189.5 -78t62.5 -264.5t-62.5 -262t-189.5 -75.5q-125 0 -187 75.5t-62 264.5q0 186 62 263t187 77zM274 1290q-45 0 -64.5 -42t-19.5 -156.5t19.5 -154.5t64.5 -40t65.5 41t20.5 156q0 113 -19.5 154.5t-66.5 41.5z" />
<glyph horiz-adv-x="542" d="M39 1266l211 147h147v-639h-159v463l-125 -84z" />
<glyph horiz-adv-x="542" d="M483 774h-442v139l170 158q100 88 100 150q0 59 -92 59l-168 -16l-6 149q131 20 221 21q113 0 162 -45.5t49 -147.5q0 -68 -28.5 -117t-92.5 -104l-108 -100h235v-146z" />
<glyph horiz-adv-x="542" d="M57 1413q127 20 213 21q227 0 228 -174q0 -109 -76 -150q47 -16 68.5 -50t21.5 -106q0 -201 -227 -200l-236 18l8 141q121 -16 201 -16q88 0 88 67.5t-82 67.5h-133v133h131q27 0 47.5 19.5t20.5 48.5q0 57 -82 57l-182 -14z" />
<glyph horiz-adv-x="542" d="M309 774v90h-282v133l120 416h177l-136 -405h121l17 182h141v-182h45v-144h-45v-90h-158z" />
<glyph horiz-adv-x="542" d="M86 1413h397v-139h-266l-10 -115q53 27 106 27q195 0 195 -203q0 -113 -59.5 -169t-169.5 -56l-226 26l13 134q113 -20 192 -21q82 0 82 78q0 72 -64 72q-20 0 -42.5 -5.5t-34.5 -11.5l-13 -6l-120 14z" />
<glyph horiz-adv-x="542" d="M492 1411l-9 -133q-115 14 -180 14q-104 0 -104 -116l16 4q16 4 43 10t47 6q211 0 211 -211q0 -106 -64.5 -168.5t-168.5 -62.5q-250 0 -250 325q0 182 62.5 268.5t203.5 86.5q33 0 81 -7l79 -10zM281 1063q-20 0 -41 -7t-32 -13.5t-11 -8.5q4 -139 79.5 -139t75.5 88 q0 43 -16 61.5t-55 18.5z" />
<glyph horiz-adv-x="542" d="M51 1255v158h436v-174l-206 -483l-179 28l201 437v34h-252z" />
<glyph horiz-adv-x="542" d="M272.5 1434q239.5 0 239.5 -179q0 -61 -23.5 -100t-54.5 -47q88 -27 88 -150q0 -113 -63.5 -158.5t-186 -45.5t-186 46t-63.5 154q0 119 88 154q-78 31 -78 149q0 177 239.5 177zM272 885q84 0 84 76q0 57 -61 81h-47q-61 -27 -62 -84q0 -73 86 -73zM272 1303 q-80 0 -79 -64q0 -51 55 -78h47q55 23 55 78q0 64 -78 64z" />
<glyph horiz-adv-x="542" d="M55 778l11 133q94 -14 170 -14q106 0 110 113l-14 -4q-16 -4 -44 -9.5t-50 -5.5q-100 0 -153.5 56.5t-53.5 158.5q0 106 64.5 167t168.5 61q129 0 189.5 -84t60.5 -256q0 -180 -61.5 -260t-198.5 -80zM264 1120l88 25q-4 147 -84 147q-76 0 -75 -86q0 -39 19 -62.5 t52 -23.5z" />
</font>
</defs>
</svg>
