<?xml version="1.0" standalone="no"?>
<!DOCTYPE svg PUBLIC "-//W3C//DTD SVG 1.1//EN" "http://www.w3.org/Graphics/SVG/1.1/DTD/svg11.dtd" >
<svg xmlns="http://www.w3.org/2000/svg">
<metadata>
This is a custom SVG webfont generated by Font Squirrel.
Copyright   : Copyright c 2010 Daniel Rhatigansparkyultrasparkyorg with Reserved Font Name Copse
Designer    : Daniel Rhatigan
Foundry     : Daniel Rhatigan
</metadata>
<defs>
<font id="CopseRegular" horiz-adv-x="1200" >
<font-face units-per-em="2048" ascent="1638" descent="-410" />
<missing-glyph horiz-adv-x="440" />
<glyph horiz-adv-x="0" />
<glyph horiz-adv-x="0" />
<glyph unicode="&#xd;" horiz-adv-x="410" />
<glyph unicode=" "  horiz-adv-x="440" />
<glyph unicode="&#x09;" horiz-adv-x="440" />
<glyph unicode="&#xa0;" horiz-adv-x="440" />
<glyph unicode="!" horiz-adv-x="596" d="M173 64q-10 26 -10 72t38.5 84t94.5 39q58 -1 100 -40.5t42 -100t-42 -99t-100 -39.5q-90 0 -123 84zM299 391q-86 0 -86 44l-48 1059q0 31 133.5 31t133.5 -33l-50 -1060q0 -27 -55 -38q-15 -3 -28 -3z" />
<glyph unicode="&#x22;" horiz-adv-x="760" d="M459 1538q2 51 145 44q88 -9 88 -48l-52 -394q-4 -30 -77 -30q-66 0 -69 30zM67 1534q0 49 124 49q62 0 85.5 -16.5t23.5 -28.5l-35 -398q-3 -30 -69 -30q-42 0 -59 11t-18 19z" />
<glyph unicode="#" horiz-adv-x="1190" d="M1129 981q-8 -75 -39 -75h-184l-45 -310h148q27 0 37 -50q2 -12 2 -29t-10 -46t-29 -29h-170l-63 -442q-2 -17 -33.5 -18.5t-41.5 -1.5h-22q-49 0 -50 20l65 442h-286l-63 -442q-2 -17 -33.5 -18.5t-41.5 -1.5h-22q-50 0 -50 20l65 442h-162q-29 0 -39 52q-2 12 -2 33 t11 45t30 24h184l46 310h-146q-29 0 -39 52q-2 13 -2 24q0 46 15 62t26 16h168l66 445q3 18 31 19t38 1q72 0 73 -20l-64 -445h287l66 445q3 18 31.5 19t38.5 1q72 0 72 -20l-64 -445h162q26 0 36 -51q3 -17 3 -28zM430 596h286l46 310h-287z" />
<glyph unicode="$" horiz-adv-x="1130" d="M490 1608q0 28 71 28t71 -28v-127q153 -9 272 -79q140 -81 140 -205q0 -64 -43.5 -109t-109.5 -45q-65 0 -109.5 44.5t-44.5 95t29 108.5q-55 32 -134 36v-477q204 -94 276.5 -151t110.5 -119t38 -148q0 -167 -116.5 -275t-308.5 -131v-168q0 -28 -71 -28t-71 28v163 q-163 11 -294 85.5t-131 193.5q0 66 45 111t109 45q65 0 109 -45.5t44 -110.5q0 -8 -2 -18l-6 -21q-3 -11 -6.5 -21t-5.5 -17q58 -43 138 -48v506q-185 80 -253.5 141.5t-102.5 126.5t-34 151q0 163 108.5 257.5t281.5 117.5v133zM830 321q16 37 16 79q0 74 -54.5 122 t-159.5 97v-435q153 29 198 137zM490 1318q-179 -32 -179 -183q0 -120 179 -216v399z" />
<glyph unicode="%" horiz-adv-x="1281" d="M912 92q130 0 130 189q0 148 -71 196q-25 17 -59 17q-127 0 -127 -189q0 -147 69 -196q24 -17 58 -17zM152.5 969q-70.5 86 -71 219.5t85 225t219.5 91.5q129 0 198.5 -86.5t69.5 -219.5t-85.5 -224.5t-215.5 -91.5t-200.5 86zM698.5 66q-70.5 86 -71 219.5t85 225 t219.5 91.5q129 0 198.5 -86.5t69.5 -219.5t-85.5 -224.5t-215.5 -91.5t-200.5 86zM1059 1505q20 32 89 32t69 -32l-984 -1505q-22 -30 -94 -30t-72 30zM365 992q130 0 130 189q0 148 -71 196q-25 17 -59 17q-127 0 -127 -189q0 -147 69 -196q24 -17 58 -17z" />
<glyph unicode="&#x26;" horiz-adv-x="1354" d="M1298 807q25 0 25 -70.5t-35 -70.5h-61q-22 -185 -202 -403l21 -33q31 -49 76.5 -69t115.5 -20q24 0 24 -56t-14.5 -70.5t-24.5 -14.5h-170q-76 0 -168 103q-171 -123 -370 -123t-320 110t-121 286q0 125 56 221t200 240l-44 72q-89 151 -88.5 289t104.5 232.5t293.5 94 t287.5 -110.5q75 -85 75 -207t-61 -227.5t-217 -265.5l255 -338q117 169 117 274q0 16 -13 16h-124q-29 0 -39 54q-2 14 -2 28q0 59 26 59h398zM424 712q-117 -117 -116.5 -271.5t61 -230.5t143.5 -76q161 0 281 91zM588 840q165 146 165 347q-1 125 -93 169q-30 14 -74 14 l-3 1q-84 0 -134 -44t-50 -99q0 -92 49.5 -183t139.5 -205z" />
<glyph unicode="'" horiz-adv-x="379" d="M73 1534q0 49 116 49q71 0 94 -15t23 -30l-43 -398q-3 -30 -69 -30q-74 0 -77 30z" />
<glyph unicode="(" horiz-adv-x="636" d="M560 1614q-256 -438 -256 -828v-120q0 -183 56.5 -385.5t199.5 -446.5q0 -45 -47 -67q-13 -6 -32.5 -6t-41.5 12q-239 257 -319 663q-28 140 -28 291q0 287 96 533t251 415q10 9 42.5 9t55.5 -21.5t23 -48.5z" />
<glyph unicode=")" horiz-adv-x="637" d="M76 -166q256 434 256 840v120q0 182 -56 379t-200 441q0 27 23 48.5t55.5 21.5t42.5 -9q241 -261 319 -657q28 -138 28 -291q0 -433 -213 -777q-63 -102 -134 -177q-21 -12 -48 -12t-50 21t-23 52z" />
<glyph unicode="*" horiz-adv-x="676" d="M124 1479l5 -1l147 -67l-17 158q0 21 52 29q13 2 37 2t42 -6q30 -8 29 -25l-20 -160l145 67q2 1 10 1q18 0 37 -45t19 -73.5t-14 -34.5l-161 -33l114 -116q3 -5 3 -21t-44 -50t-62.5 -34t-22.5 7l-89 145l-77 -142q-5 -7 -24.5 -7t-64 32t-44.5 58q0 5 3 10l109 122 l-156 30q-14 4 -14 34t17 75t41 45z" />
<glyph unicode="+" horiz-adv-x="1042" d="M942 729q32 0 39 -74q0 -45 -14.5 -62.5t-24.5 -17.5h-350v-413q0 -21 -72 -21t-72 21v413h-348q-28 0 -38 52q-3 17 -3 28q8 76 41 74h348v369q0 21 72 21t72 -21v-369h350z" />
<glyph unicode="," horiz-adv-x="505" d="M180 -16q-74 39 -74 129q0 59 42 99t102 40t104 -40t45 -99q0 -176 -265 -383q-29 0 -44.5 16t-15.5 43q106 119 106 195z" />
<glyph unicode="-" horiz-adv-x="750" d="M153 689h447q26 0 36 -59q2 -14 2 -26q0 -52 -14.5 -71.5t-24.5 -19.5h-447q-28 0 -38 61q-2 14 -2 34t11 50.5t30 30.5z" />
<glyph unicode="." horiz-adv-x="487" d="M106 115q0 95 84 129q26 10 69 10t82.5 -40t39.5 -99q0 -92 -82 -125q-25 -10 -70 -10t-84 38t-39 97z" />
<glyph unicode="/" horiz-adv-x="913" d="M707 1606q49 32 75 32q90 0 90 -32l-666 -1747q-40 -29 -106 -29t-66 29z" />
<glyph unicode="0" d="M995 1314q111 -190 111 -546.5t-143 -572t-386 -215.5t-373 246q-110 206 -110 452.5t36 401.5q104 445 488 445q253 0 377 -211zM602 1360q-275 0 -275 -590v-17q0 -427 153 -562q52 -46 122 -46q132 0 201 167t70 441q0 439 -140 561q-52 46 -131 46z" />
<glyph unicode="1" d="M1052 141q25 0 25 -70.5t-36 -70.5h-723q-23 0 -23 52.5t27 80.5q8 8 16 8h149q91 0 105 25q4 8 4 18v967q0 61 -21 61q-7 0 -27 -8l-46 -18q-26 -10 -55 -23q-109 -49 -134.5 -49t-48 31.5t-22.5 58t16 36.5l458 285q91 0 91 -20v-1364h245z" />
<glyph unicode="2" d="M297 1009q-65 0 -109.5 44.5t-44.5 120.5t40.5 143t104.5 113q131 94 318.5 94.5t310 -89t122.5 -240.5q-1 -234 -186 -412q-53 -52 -113 -101l-120 -98q-223 -182 -282 -373h553l40 137q27 22 55 22q55 0 79 -51l-46 -319h-846v75q0 279 200 499q57 62 117 118l116 110 q125 118 173 226q27 61 27 150t-65 141t-185 52t-180 -71q32 -16 53 -54t21 -92.5t-43 -99.5t-110 -45z" />
<glyph unicode="3" d="M378 205q60 -71 181 -71t194 76.5t73 199t-74 214.5t-207 107v93q173 49 237 189q26 55 26 117q0 111 -66.5 176t-185 65t-178.5 -71q32 -16 53 -54t21 -92.5t-43.5 -99.5t-109.5 -45q-65 0 -109.5 44.5t-44.5 120.5t40.5 143t104.5 113q131 94 316 94.5t299 -103 t114 -276t-157 -289.5q-44 -33 -91 -54q125 -63 180 -123q108 -119 108 -280t-135 -290t-342 -129q-164 0 -300.5 99t-136.5 261q0 67 44.5 111.5t107 44.5t108 -42.5t45.5 -112.5t-72 -136z" />
<glyph unicode="4" d="M1090 570q25 0 25 -57t-17 -77t-28 -20h-163v-275h147q25 0 25 -70.5t-36 -70.5h-625q-23 0 -23 52t27 81q8 8 16 8h149q91 0 105 25q4 8 4 18v232h-553q-41 24 -47 69l459 1040q175 0 175 -132l-416 -823h382v348q0 102 211 102v-450h183z" />
<glyph unicode="5" d="M378 205q60 -71 184 -71t201 79t77 223t-96 234t-255 90h-244v745h758q0 -110 -12 -143q-25 -68 -98 -68h-494v-380h154q248 0 384 -139t136 -342t-138 -327t-356 -126q-162 0 -298 99t-136 261q0 66 45 111t109 45q65 0 109 -46t44 -111.5t-74 -133.5z" />
<glyph unicode="6" d="M342 809q106 110 334 110q80 0 165 -31.5t146 -93.5q128 -129 128 -343t-151 -342.5t-336 -128.5q-519 0 -519 730q0 404 182 624q157 191 367 191h2q299 -1 384 -205q28 -68 28 -144.5t-45 -121.5t-109 -45t-108 45.5t-45 110.5q0 97 74 135q-60 71 -177 71h-2 q-126 0 -222 -152.5t-96 -409.5zM444.5 707q-74.5 -58 -102.5 -130q0 -168 74 -305.5t194 -137.5t196 89.5t76 224t-73 225.5t-181.5 91.5t-183 -57.5z" />
<glyph unicode="7" d="M608 0q0 -20 -116.5 -20t-116.5 20q53 556 331 1014q88 144 193 296h-637l-37 -124q-6 -19 -44 -19q-84 0 -90 48l38 290h972q35 0 35 -65l-148 -258q-138 -247 -199.5 -403.5t-93.5 -270.5q-64 -226 -87 -508z" />
<glyph unicode="8" d="M357 836q-87 72 -122 128q-71 112 -71 240t125.5 224.5t322.5 96.5t318.5 -96t121.5 -224q0 -189 -140 -347q-38 -44 -76 -80q139 -75 187.5 -132t69 -113t20.5 -141.5t-40.5 -163.5t-108.5 -133q-141 -115 -339 -115q-259 0 -395.5 112.5t-136.5 296.5q0 237 264 447z M487 761q-161 -172 -161 -348q0 -123 77 -201t202.5 -78t200 80t74.5 151t-28.5 121t-93.5 107t-271 168zM702 850q145 187 145 310q0 94 -70.5 152.5t-177 58t-170 -54.5t-63.5 -116q0 -103 100 -192q71 -64 236 -158z" />
<glyph unicode="9" d="M865 696q-97 -110 -333 -110q-80 0 -165.5 32t-146.5 94q-128 129 -128 342.5t151 342t336 128.5q519 0 519 -730q0 -621 -318 -769q-100 -46 -201 -46q-191 0 -317.5 96.5t-126.5 261.5q0 68 45 113t109 45q65 0 109 -45.5t44 -110.5q0 -97 -74 -135q60 -71 193.5 -71 t218.5 142.5t85 419.5zM763 798q75 58 102 130q-1 197 -72.5 320t-193.5 122.5t-198 -90t-76 -224.5t71.5 -225.5t181.5 -90.5t185 58z" />
<glyph unicode=":" horiz-adv-x="559" d="M142 772q0 58 38 97t84 39h24q50 1 90 -38.5t39 -97.5q1 -58 -38 -97t-85 -40q-76 0 -114 39.5t-38 97.5zM142 162q0 60 38.5 100t82.5 40h1q74 0 114 -40t39 -100q1 -58 -38 -97t-84 -39h-25q-52 -1 -90 38.5t-38 97.5z" />
<glyph unicode=";" horiz-adv-x="573" d="M185.5 673.5q-38.5 38.5 -38.5 98.5q0 94 82 127q25 10 70 10t84 -39.5t38 -97.5q1 -58 -38 -97t-99 -39.5t-98.5 38zM216 -16q-74 39 -74 129q0 59 42 99t102 40t104 -40t45 -99q0 -176 -265 -383q-29 0 -44.5 16t-15.5 43q106 119 106 195z" />
<glyph unicode="&#x3c;" horiz-adv-x="1075" d="M331 642l636 -446q0 -76 -62 -100l-799 462q-50 30 -50 83q0 60 53 90l791 443q62 -20 67 -106z" />
<glyph unicode="=" horiz-adv-x="1165" d="M1005 916q27 0 37 -51q2 -13 2 -29t-10 -45t-29 -29h-846q-29 0 -39 52q-2 13 -2 24q0 46 15 62t26 16h846zM1005 543q27 0 37 -50q2 -13 2 -30t-10 -45.5t-29 -28.5h-842q-29 0 -39 52q-2 13 -2 32t11 44.5t29 25.5h843z" />
<glyph unicode="&#x3e;" horiz-adv-x="1074" d="M108 1068q0 57 38 90q12 11 29 16l791 -443q53 -30 53 -90q0 -53 -50 -83l-799 -462q-62 24 -62 100l636 446z" />
<glyph unicode="?" horiz-adv-x="947" d="M313 1360q23 -41 23 -94t-41 -92.5t-100 -39.5t-99 39.5t-40 92.5q0 92 74.5 149.5t170 83t181.5 25.5l3 1q84 0 161.5 -29t129.5 -78q106 -99 106.5 -249.5t-116.5 -272.5q-52 -54 -116 -103l-129 -101v-247q0 -45 -63 -59q-18 -4 -38 -4q-94 0 -94 63v270q36 33 76 63 l77 60q90 73 124 122q63 93 63 190.5t-62.5 158.5t-155 61.5t-135.5 -10.5zM435 -20q-109 0 -143 84q-10 26 -10.5 71t40 84t84.5 39h24q48 1 89.5 -39.5t41.5 -100t-41 -99t-85 -39.5z" />
<glyph unicode="@" horiz-adv-x="1843" d="M929 1024q100 0 233 -37l40 51q6 2 12 2h15q59 0 104 -36q13 -10 19 -23l-55 -215v-570q-1 -41 11 -53.5t51 -12.5q87 0 163 109t76 269q0 310 -180 501.5t-489 191t-502.5 -199t-193.5 -553.5q1 -286 185 -467t469 -181t461 116q46 -20 76 -84q8 -18 11 -34 q-217 -148 -523 -148q-390 0 -617 213t-227 603.5t246 639.5t650 249q155 0 308.5 -63t261.5 -174q226 -231 226 -589q0 -225 -130 -382.5t-329 -157.5h-2q-103 0 -143 52q-14 18 -24 44q-83 -67 -211 -95q-46 -10 -95 -10q-366 0 -366 532q0 228 135 370t334 142zM867 134 q115 0 235 100v571q-83 65 -188 65q-158 0 -224 -184q-25 -70 -25 -174q0 -194 55 -286t147 -92z" />
<glyph unicode="A" horiz-adv-x="1424" d="M13 0q-25 0 -25 54t24 79q8 8 36 8q74 0 97 57l509 1307q8 20 57 20t57 -20l533 -1364h117q26 0 26 -55t-14.5 -70.5t-24.5 -15.5h-485q-25 0 -25 54t15 70.5t26 16.5q124 0 124 24q0 9 -8 25l-119 309h-507l-139 -358h172q26 0 26 -55t-13.5 -70.5t-22.5 -15.5h-436z M485 653h389l-193 504z" />
<glyph unicode="B" horiz-adv-x="1329" d="M678 -10l-251 10h-302q-25 0 -25 53t28 81q8 8 34 8h11q117 0 118 42v1164q0 16 -13 16h-163q-29 0 -39 54q-2 14 -2 28q0 59 26 59h514q543 0 543 -368q0 -114 -80.5 -203t-195.5 -120q169 -24 268.5 -124t99.5 -252q0 -318 -316 -415q-108 -33 -255 -33zM502 298 q0 -79 39 -116.5t133 -37.5q188 0 265 63.5t77 218t-132 236.5q-113 71 -274 71h-108v-435zM655 887q269 0 269 236q0 140 -110 189q-87 39 -312 39v-464h153z" />
<glyph unicode="C" horiz-adv-x="1274" d="M925 1335q-59 36 -155 36q-191 0 -312.5 -151.5t-122.5 -396.5q0 -507 249 -637q79 -42 161 -42h1q162 0 288 84q58 40 78 40t48 -36.5t28 -63t-18 -42.5q-59 -52 -173 -99t-256 -47q-286 0 -453 182q-186 202 -186 580t187 580.5t485 202.5h3q157 0 295 -80t138 -204 q0 -64 -43.5 -109t-109.5 -45q-65 0 -109.5 44.5t-44.5 105t22 98.5z" />
<glyph unicode="D" horiz-adv-x="1517" d="M114 1364q-34 0 -41 78q0 63 26 63h582q395 0 563.5 -184t168.5 -565t-229 -580q-202 -175 -503 -176h-553q-27 0 -27 51.5t26 81.5q7 9 58 9.5t78 9t27 32.5v1166q0 14 -12 14h-164zM501 154h147q214 0 373 148t159 421q0 468 -292 589q-94 39 -215 39h-172v-1197z" />
<glyph unicode="E" horiz-adv-x="1288" d="M114 1364q-34 0 -41 78q0 63 26 63h1100v-291q0 -34 -70.5 -34t-70.5 22q0 84 -22 108q-39 41 -142 41h-393v-503h254q46 0 56.5 27t10.5 124q0 23 56 23t71 -14t15 -23v-428q0 -41 -72 -41t-72 27v151h-319v-540h530l76 149q9 19 37 19q96 0 97 -41q0 -5 -1 -7l-92 -274 h-1020q-27 0 -27 53q0 56 25 81q8 8 35 8h11q118 0 118 42v1166q0 14 -12 14h-164z" />
<glyph unicode="F" horiz-adv-x="1236" d="M114 1364q-34 0 -41 78q0 63 26 63h1100v-291q0 -34 -70.5 -34t-70.5 22q0 84 -22 108q-39 41 -142 41h-393v-503h254q46 0 56.5 27t10.5 124q0 23 56 23t71 -14t15 -23v-428q0 -41 -72 -41t-72 27v151h-319v-553h215q26 0 26 -54.5t-15 -70.5t-26 -16h-573q-27 0 -27 53 q0 56 25 81q8 8 35 8h11q118 0 118 42v1166q0 14 -12 14h-164z" />
<glyph unicode="G" horiz-adv-x="1363" d="M333 819q0 -675 437 -675h3q113 0 214 42v289q0 16 -13 16h-163q-29 1 -39 55q-2 14 -2 27q0 59 26 59h483q25 0 25 -70.5t-35 -70.5h-71v-344q-84 -72 -154 -103q-147 -64 -318.5 -64t-314.5 94q-221 146 -289 446q-22 100 -22 257t52 306t141 247q178 195 477 195h8 q183 0 319 -78t136 -206q-1 -64 -44.5 -109t-108.5 -45t-109.5 44.5t-44.5 106t16 98.5q-78 35 -174 35q-192 0 -313.5 -152t-121.5 -400z" />
<glyph unicode="H" horiz-adv-x="1612" d="M114 1364q-35 0 -41 80q0 61 26 61h592q25 0 25 -70.5t-35 -70.5h-180v-516h610v500q0 16 -12 16h-164q-29 0 -39 53q-2 14 -2 27q0 61 27 61h591q25 0 25 -70.5t-35 -70.5h-180v-1223h168q27 0 27 -55t-15.5 -70.5t-25.5 -15.5h-531q-24 0 -24 54t27 80q8 8 35 8h11 q117 0 117 42v510h-610v-553h168q26 0 26 -54.5t-15 -70.5t-26 -16h-532q-23 0 -23 53.5t27 80.5q8 8 35 8h11q118 0 118 42v1164q0 16 -13 16h-163z" />
<glyph unicode="I" horiz-adv-x="791" d="M670 141q26 0 26 -54.5t-15 -70.5t-26 -16h-532q-23 0 -23 53t28 81q8 8 34 8h11q117 0 118 42v1164q0 16 -13 16h-163q-29 0 -39 54q-2 14 -2 28q0 59 26 59h592q25 0 25 -70.5t-35 -70.5h-180v-1223h168z" />
<glyph unicode="J" horiz-adv-x="756" d="M674 1505q25 0 25 -70.5t-35 -70.5h-180v-1296q0 -187 -100 -339q-70 -104 -178 -147q-56 -22 -119 -22t-101.5 38.5t-38.5 95.5q0 98 83 132q25 10 54 10q75 0 117 -67q72 45 72 231v1348q0 16 -13 16h-163q-29 0 -39 54q-2 14 -2 28q0 59 26 59h592z" />
<glyph unicode="K" horiz-adv-x="1487" d="M670 141q26 0 26 -54.5t-15 -70.5t-26 -16h-532q-23 0 -23 53t28 81q8 8 34 8h11q117 0 118 42v1164q0 16 -13 16h-163q-29 0 -39 54q-2 14 -2 28q0 59 26 59h540q25 0 25 -70.5t-35 -70.5h-128v-1223h168zM1434 1448q0 -84 -48 -84q-62 0 -101 -43l-457 -518l440 -573 q35 -46 78.5 -67.5t113.5 -21.5q24 0 24 -56t-14.5 -70.5t-24.5 -14.5h-170q-69 0 -139 62q-20 18 -36 40l-531 694l525 568h-132q-26 0 -26 55t13.5 70.5t22.5 15.5h437q25 0 25 -57z" />
<glyph unicode="L" horiz-adv-x="1183" d="M74 1440l-1 16q0 12 6.5 30t19.5 19h592q25 0 25 -70.5t-35 -70.5h-180v-1210h469l77 149q9 19 44.5 19t63 -11.5t27.5 -29.5q0 -5 -1 -7l-93 -274h-966q-23 0 -23 53.5t27 80.5q8 8 35 8h11q118 0 118 42v1164q0 16 -13 16h-163q-28 0 -38 54q-2 14 -2 22z" />
<glyph unicode="M" horiz-adv-x="1969" d="M612 141q26 0 26 -54.5t-15 -70.5t-26 -16h-472q-25 0 -25 53t28 81q8 8 34 8h11q117 0 118 42v1164q0 16 -13 16h-163q-29 0 -39 54q-2 14 -2 28q0 59 26 59h298q28 0 41 -29l549 -1156l481 1165q9 20 26 20h375q25 0 25 -70.5t-35 -70.5h-180v-1223h168q26 0 26 -54.5 t-15 -70.5t-26 -16h-530q-25 0 -25 53t28 81q8 8 34 8h11q117 0 118 42v935l-449 -1119q-12 -12 -53 -12t-62 12l-460 1023v-882h167z" />
<glyph unicode="N" horiz-adv-x="1667" d="M74 1446q0 59 26 59h348l793 -1160v1003q0 16 -13 16h-163q-29 0 -39 54q-2 14 -2 28q0 59 26 59h534q25 0 25 -70.5t-35 -70.5h-179v-1366q0 -18 -72.5 -18t-83.5 18l-794 1129v-986h168q27 0 27 -55.5t-15 -70.5t-27 -15h-473q-25 0 -25 53t28 81q8 8 34 8h11 q117 0 118 42v1164q0 16 -13 16h-163q-29 0 -39 54q-2 14 -2 28z" />
<glyph unicode="O" horiz-adv-x="1501" d="M288 161q-186 200 -186 578t186 582q185 204 486 204h1q302 0 462.5 -212.5t160.5 -587.5t-200 -571q-176 -174 -459.5 -174t-450.5 181zM581 187q79 -42 171 -42q187 0 294 129q122 149 122 434.5t-123 468.5t-301 183t-295 -148t-117 -389q0 -505 249 -636z" />
<glyph unicode="P" horiz-adv-x="1221" d="M114 1364q-35 0 -41 82q0 59 27 59h556q231 -1 367.5 -111.5t136.5 -303.5q0 -461 -659 -461v-488h223q26 0 26 -54.5t-15 -70.5t-26 -16h-586q-24 0 -24 53.5t27 80.5q8 8 35 8h11q118 0 118 42v1165q0 15 -13 15h-163zM501 783q210 1 304 51q122 65 122 231.5 t-95.5 226t-330.5 59.5v-568z" />
<glyph unicode="Q" horiz-adv-x="1502" d="M1360 -439q-363 0 -620 419h-8q-276 0 -452.5 191t-176.5 568.5t185 581.5q186 204 487 204l1 -1q302 0 462.5 -212t160.5 -609t-242 -587q-74 -58 -161 -91q165 -310 392 -310q108 0 248 84q7 4 15 4q28 0 63 -43q20 -25 20 -55.5t-22 -46.5q-136 -97 -345 -97h-7z M582 187q80 -42 172 -42q187 0 293 129q122 148 122 432q0 287 -124 471q-123 183 -301 183t-294.5 -147.5t-116.5 -385.5q0 -509 249 -640z" />
<glyph unicode="R" horiz-adv-x="1355" d="M114 1364q-35 0 -41 82q0 59 27 59h556q231 -1 367.5 -111.5t136.5 -303.5q0 -302 -291 -408l280 -452q30 -49 76 -69t116 -20q24 0 24 -56t-14.5 -70.5t-24.5 -14.5h-170q-76 0 -141 60q-20 18 -34 42l-328 534q-63 -7 -152 -7v-488h223q26 0 26 -54.5t-15 -70.5 t-26 -16h-586q-24 0 -24 53.5t27 80.5q8 8 35 8h11q118 0 118 42v1165q0 15 -13 15h-163zM501 783q210 1 304 51q122 65 122 231.5t-95.5 226t-330.5 59.5v-568z" />
<glyph unicode="S" horiz-adv-x="1177" d="M609 1525h9q153 0 286 -69q158 -81 158 -215q0 -64 -43.5 -109t-109.5 -45q-65 0 -109.5 44.5t-44.5 109.5q0 53 29 94q-60 35 -142 35q-151 -1 -232 -57.5t-81 -163.5q0 -78 87 -141q42 -32 104 -64l135 -70q221 -110 310 -203q111 -115 111 -287.5t-144 -288 t-365 -115.5q-170 0 -315 71q-169 83 -169 209q0 66 45 111t109 45q65 0 109 -45.5t44 -98.5t-28 -103q65 -35 161 -35q166 0 254 66.5t88 184.5t-205 237q-58 34 -126 67l-143 73q-273 144 -273 385q0 185 142 281.5t349 96.5z" />
<glyph unicode="T" horiz-adv-x="1275" d="M910 141q27 0 27 -55t-15.5 -70.5t-25.5 -15.5h-531q-24 0 -24 54t27 80q8 8 55 8h9q99 0 99 42v1167h-335l-44 -148q-9 -26 -53 -26l-1 1q-45 0 -72 30q-8 10 -8 20v4l38 273h1161l38 -273v-4q0 -36 -55 -48q-15 -4 -31 -3q-39 0 -48 26l-44 148h-335v-1210h168z" />
<glyph unicode="U" horiz-adv-x="1545" d="M82 1364q-34 0 -41 80q0 61 26 61h572q25 0 25 -70.5t-35 -70.5h-160v-786q0 -341 194 -411q61 -22 141 -22q166 0 244 103.5t78 326.5v773q0 16 -13 16h-144q-29 0 -39 54q-2 14 -2 28q0 59 26 59h516q26 0 26 -56t-13.5 -70.5t-22.5 -14.5h-169v-809q0 -575 -519 -575 q-280 0 -397 145.5t-117 443.5v779q0 16 -13 16h-163z" />
<glyph unicode="V" horiz-adv-x="1426" d="M1412 1505q25 -1 25 -55t-24 -78q-9 -8 -37 -8q-76 0 -96 -57l-503 -1307q-8 -20 -59 -20t-61 20l-540 1364h-110q-26 0 -26 54t14 70.5t25 16.5h485q25 0 25 -54t-15.5 -70.5t-25.5 -16.5q-124 0 -124 -24q0 -9 8 -25l371 -967l375 1016h-153q-26 0 -26 55t13.5 70.5 t22.5 15.5h436z" />
<glyph unicode="W" horiz-adv-x="2059" d="M2023 1505q25 -1 25 -55t-24 -78q-8 -8 -36 -8q-74 0 -97 -57l-410 -1307q-6 -20 -59 -20t-61 20l-331 848l-277 -848q-6 -20 -55 -20t-59 20l-541 1364h-109q-26 0 -26 54t14 70.5t25 16.5h485q25 0 25 -54t-15.5 -70.5t-25.5 -16.5q-124 0 -124 -24q0 -9 8 -25 l360 -939l229 691l-116 297h-117q-26 0 -26 54t14 70.5t25 16.5h485q25 0 25 -54t-15.5 -70.5t-25.5 -16.5q-124 0 -124 -24q0 -9 8 -25l359 -939l297 988h-156q-26 0 -26 55t13.5 70.5t22.5 15.5h436z" />
<glyph unicode="X" horiz-adv-x="1383" d="M1344 141q26 0 26 -54.5t-15 -70.5t-26 -16h-528q-27 0 -27 54t28 80q8 7 14 7h129l-299 477l-275 -447q-7 -10 -7 -17q0 -13 18 -13h105q26 0 26 -54.5t-15 -70.5t-26 -16h-429q-26 0 -26 54t26 80q7 7 43 7q79 0 119 55l349 569l-375 599h-122q-27 0 -27 54t14.5 70.5 t24.5 16.5h511q23 0 23 -55t-15.5 -70.5t-26.5 -15.5q-111 0 -111 -22q0 -7 9 -25l257 -411l318 458h-165q-26 0 -26 55t13.5 70.5t22.5 15.5h441q24 0 24 -54.5t-15 -70.5t-25 -16q-72 0 -110 -43l-387 -560l349 -557q39 -63 165 -63h23z" />
<glyph unicode="Y" horiz-adv-x="1284" d="M268 0q-25 0 -25 54t27 80q8 8 16 7h149q91 0 105 25q4 8 4 18v375l-437 805h-112q-26 0 -26 54t14 70.5t25 16.5h493q25 -1 25 -55t-15 -70t-26 -16q-106 0 -106 -35q0 -10 6 -22l285 -572l316 629h-156q-26 0 -26 55t13.5 70.5t22.5 15.5h436q25 -1 25 -55t-24 -78 q-9 -8 -37 -8q-66 0 -88 -43l-397 -762v-418h245q26 -1 26 -55t-15 -70t-26 -16h-717z" />
<glyph unicode="Z" horiz-adv-x="1280" d="M80 75l822 1276h-644l-44 -148q-9 -26 -53 -26l-1 1q-46 0 -72 30q-8 10 -8 20v4l38 273h1084l-3 -68l-825 -1283h626l77 149q9 19 44.5 19t63 -11.5t27.5 -29.5q0 -5 -1 -7l-93 -274h-1038v75z" />
<glyph unicode="[" horiz-adv-x="654" d="M614 -19q30 0 30 -70.5t-30 -70.5h-429v1831h429q33 0 33 -70.5t-33 -70.5h-234v-1549h234z" />
<glyph unicode="\" horiz-adv-x="913" d="M41 1606q0 32 75 32q41 0 90 -32l673 -1747q0 -29 -66 -29t-106 29z" />
<glyph unicode="]" horiz-adv-x="654" d="M40 1530q-33 0 -33 70.5t33 70.5h429v-1831h-429q-30 0 -30 70.5t30 70.5h234v1549h-234z" />
<glyph unicode="^" horiz-adv-x="1180" d="M135 834q-76 0 -76 86l453 489q30 35 72 35t75 -35l459 -491q0 -38 -20 -61t-56 -23l-462 405z" />
<glyph unicode="_" horiz-adv-x="1178" d="M1178 -164v-123h-1178v123h1178z" />
<glyph unicode="`" horiz-adv-x="1065" d="M211 1423q0 109 90 147q25 11 41 11h18l273 -285q-1 -44 -29 -76t-69 -32z" />
<glyph unicode="a" horiz-adv-x="1045" d="M378 880q12 -26 12 -73t-39 -86t-98 -40q-93 0 -127 82q-10 25 -10 61q0 72 76 124q110 73 340 73q183 0 270 -111q69 -89 69 -252v-517h168q27 0 27 -59q0 -26 -10 -51.5t-31 -30.5q-56 -16 -160.5 -16t-116.5 3.5t-26.5 16.5t-33.5 65q-122 -89 -285 -89t-248.5 79 t-85.5 202q0 156 106 237t254 81h247q0 167 -27.5 215.5t-66 67t-102.5 18.5h-102zM430 134q126 0 246 100v195h-204q-95 0 -132 -27q-69 -48 -69 -111q0 -118 98 -148q29 -9 61 -9z" />
<glyph unicode="b" horiz-adv-x="1099" d="M342 207q95 -67 188 -67q191 0 256 182q26 72 26 181q0 188 -87 277q-67 66 -157 66q-1 0 -1 1q-90 0 -171 -49q-30 -18 -54 -45v-546zM-29 1409q-41 0 -41 82q0 45 26 55q87 34 341 37q43 0 45 -85v-559q138 82 246 82h6q196 0 310 -139t114 -379.5t-135 -378.5 t-341 -138q-80 0 -180 60q-24 14 -41 23l-70 -85q-10 -6 -32.5 -6t-68.5 22.5t-48 43.5l45 181v1184h-176z" />
<glyph unicode="c" horiz-adv-x="1004" d="M655 880h-93q-104 0 -179 -79q-96 -101 -96 -291q0 -278 155 -352q49 -24 117 -24q96 0 231 79l71 43q3 3 18 3t43 -38.5t28 -63.5t-11 -34q-191 -143 -408 -143t-333 142.5t-116 385t140.5 377.5t359 135t305.5 -98q33 -38 33 -95t-40 -96.5t-97 -39.5t-97 38.5 t-40 76.5t9 74z" />
<glyph unicode="d" horiz-adv-x="1147" d="M583 1409q-41 0 -41 79q0 48 27 58q92 34 340 37h1q42 0 44 -85v-1358h168q26 0 26 -52.5t-15 -69.5t-22.5 -17.5t-28.5 -2.5q-110 -14 -182 -14t-92 16q-19 16 -38 69q-122 -89 -301.5 -89t-282.5 143t-103 387.5t142.5 377.5t357.5 133q101 0 176 -20v408h-176z M510 134q129 0 249 100v568q-83 65 -188 65q-187 0 -257 -181q-26 -69 -26 -174q0 -189 74 -293q62 -85 148 -85z" />
<glyph unicode="e" horiz-adv-x="1041" d="M534 -20q-221 0 -337 144q-115 143 -115 383q0 246 144 380q142 133 345 134h3q186 0 287 -116.5t101 -335.5q0 -47 -42.5 -80.5t-106.5 -33.5h-527q18 -234 163 -300q46 -21 97 -21t108 16.5t131 63t86.5 46.5t25.5 -12t32 -39t19.5 -53t-10.5 -34q-183 -142 -404 -142z M757 605q1 262 -195 262q-99 0 -184 -69t-92 -193h471z" />
<glyph unicode="f" horiz-adv-x="792" d="M64 847q0 154 38 154h15q116 0 132 23q6 8 6 20v123q-1 290 179 382q66 34 162 34t148 -33q70 -43 70 -133q0 -59 -39 -98t-98 -39q-93 0 -127 82q-10 25 -10 55v32h-1q-81 0 -87 -169q-2 -48 -2 -96v-183h269q25 0 25 -58.5t-24 -86.5q-8 -10 -21 -9h-249v-706h226 q27 0 27 -54.5t-15 -70.5t-26 -16h-569q-27 0 -27 54.5t15 70.5t23 16h13q116 0 132 23q6 8 6 20v663h-191z" />
<glyph unicode="g" horiz-adv-x="1130" d="M1011 1001q117 0 117 -100q0 -44 -31 -71t-67 -27t-53 11t-35 26q-48 41 -116 52q76 -86 76 -180q0 -173 -129.5 -268.5t-304.5 -95.5q-39 0 -75 6q-34 -42 -34 -76t34.5 -58.5t114.5 -24.5h180q196 0 282 -85q67 -66 67 -197t-139.5 -242t-380.5 -111t-361 98 q-93 76 -93 182.5t108 211.5l64 65l-24 29q-42 49 -42 111t84 151q-145 96 -145 265.5t128.5 256t291.5 86.5q59 0 117 -15h366zM258 -137q0 -149 241 -149q135 0 239 60t104 146.5t-108 114.5q-38 10 -93 10h-272l-34 -37q-77 -84 -77 -145zM372 832q-54 -54 -54 -142 q0 -90 49 -140q48 -48 110 -48q108 0 161 61.5t53 141t-49.5 130.5t-109.5 51q-106 0 -160 -54z" />
<glyph unicode="h" horiz-adv-x="1249" d="M34 1409q-36 1 -41 80q0 47 27 57q89 35 340 37q42 0 44 -85q0 -25 1 -52v-535q129 74 259 102q38 8 62 8q196 0 266 -102q54 -78 54 -276v-502h156q26 0 26 -54.5t-15 -70.5t-26 -16h-454q-27 0 -27 54.5t15 70.5t26 16q104 0 104 43v297q0 192 -22 248.5t-56.5 80 t-93.5 23.5q-134 0 -274 -112v-580h168q26 0 26 -54.5t-15 -70.5t-26 -16h-510q-26 0 -26 54.5t15 70.5t23 16h13q116 0 131 23q6 8 6 20v1225h-176z" />
<glyph unicode="i" horiz-adv-x="662" d="M327 1272q-93 0 -127 82q-10 25 -10 55q0 95 83 129q25 10 54 10q58 0 97.5 -39.5t39.5 -99.5q0 -59 -39 -98t-98 -39zM75 847q-41 1 -41 80q0 47 27 57q89 35 340 37h1q42 0 44 -85v-795h168q26 0 26 -54.5t-15 -70.5t-26 -16h-510q-26 0 -26 54.5t15 70.5t23 16h13 q117 0 132 23q6 8 5 20v663h-176z" />
<glyph unicode="j" horiz-adv-x="568" d="M58 847q-36 1 -41 78q0 46 26 57q105 39 341 39h1q41 0 43 -85q0 -24 1 -52v-816q0 -191 -92 -339q-105 -169 -292 -169q-93 0 -127 82q-10 25 -10 55q0 95 83 129q25 10 54 10q73 0 99 -67q90 0 90 231v847h-176zM310 1272q-94 0 -128 82q-10 25 -10 55q0 95 84 129 q26 10 54 10q58 0 97.5 -39.5t39.5 -99.5t-38.5 -98.5t-98.5 -38.5z" />
<glyph unicode="k" horiz-adv-x="1209" d="M34 1409q-36 1 -41 80q0 47 27 57q89 35 340 37q42 0 44 -85q0 -25 1 -52v-1305h105q27 0 27 -55t-15.5 -70.5t-25.5 -15.5h-448q-26 0 -26 54.5t15 70.5t23 16h13q116 0 131 23q6 8 6 20v1225h-176zM1154 141q27 0 27 -54.5t-15 -70.5t-26 -16h-261l-462 600l403 401 h212q28 0 38 -52q2 -14 2 -27q0 -62 -26 -62q-97 0 -132 -14.5t-51 -30.5l-219 -222l350 -385q62 -67 160 -67z" />
<glyph unicode="l" horiz-adv-x="621" d="M34 1409q-36 1 -41 80q0 47 27 57q89 35 340 37q42 0 44 -85q0 -25 1 -52v-1305h168q26 0 26 -54.5t-15 -70.5t-26 -16h-510q-26 0 -26 54.5t15 70.5t23 16h13q116 0 131 23q6 8 6 20v1225h-176z" />
<glyph unicode="m" horiz-adv-x="1931" d="M1033 880q243 141 408 141q63 0 125 -26.5t98 -76.5q64 -88 64 -280v-497h155q27 0 27 -70.5t-37 -70.5h-459q-26 0 -26 55t24 79q8 8 17 7q104 0 104 43v297q0 194 -22 254.5t-56.5 86t-93.5 25.5q-111 0 -274 -129v-577h155q27 0 27 -70.5t-41 -70.5h-455 q-26 0 -26 54.5t25 79.5q8 8 16 7q104 0 104 43v297q0 194 -22 254.5t-56.5 86t-93.5 25.5q-111 0 -274 -129v-577h168q26 0 26 -54t-15.5 -70.5t-25.5 -16.5h-508q-28 0 -28 54.5t15 70.5t23 16h13q115 0 131 23q6 8 6 20v663h-176q-29 1 -39 51q-2 14 -2 26q0 48 26 58 q55 22 149.5 31t118.5 9h25q43 0 57 -14.5t15 -92.5v-19q151 84 275 115q40 10 67 10q185 0 266 -141z" />
<glyph unicode="n" horiz-adv-x="1290" d="M75 847q-41 1 -41 78q0 47 26 57q55 22 149.5 31t118.5 9h25q43 0 57 -14.5t15 -92.5v-19q151 84 275 115q40 10 101.5 10t123.5 -26.5t98 -76.5q64 -88 64 -280v-497h155q27 0 27 -54.5t-15 -70.5t-26 -16h-455q-26 0 -26 54.5t15 70.5t26 16q104 0 104 43v297 q0 194 -22 254.5t-56.5 86t-93.5 25.5q-111 0 -274 -129v-577h168q26 0 26 -54.5t-15 -70.5t-26 -16h-510q-26 0 -26 54.5t15 70.5t23 16h13q115 0 131 23q6 8 6 20v663h-176z" />
<glyph unicode="o" horiz-adv-x="1093" d="M195 128.5q-115 148.5 -115 389t145 372t355 131.5h3q196 0 312.5 -145.5t116.5 -384.5t-136 -375t-351 -136t-330 148.5zM550 867h-2q-176 0 -238 -179q-24 -70 -25 -172q0 -189 71 -285.5t195 -96.5t190 105t66 267q-1 271 -159 340q-48 21 -98 21z" />
<glyph unicode="p" horiz-adv-x="1177" d="M399 924q172 98 279 98h34q62 0 137 -36t130 -102q116 -140 116 -383t-133 -379t-342 -136q-82 0 -170 45q-20 10 -30 14v-342h222q27 0 27 -54.5t-15 -70.5t-26 -16h-565q-27 0 -27 54.5t15 70.5t26 16q125 0 142 23q6 8 6 20v1101h-177q-36 1 -41 79q0 46 23 54 q47 15 138.5 28t147 13t64.5 -5q19 -8 19 -56v-36zM420 195q69 -55 188 -55q190 0 256 182q26 72 26 180q0 190 -88 278q-66 67 -160 67h-3q-86 0 -165 -53q-30 -20 -54 -48v-551z" />
<glyph unicode="q" horiz-adv-x="1116" d="M759 64q-102 -84 -304 -84q-71 0 -146 38q-226 115 -226 497q0 240 142.5 373t355.5 133q105 0 238 -37l63 82q6 2 12 2h15q59 0 104 -36q13 -10 19 -23l-78 -246v-1061h164q26 0 26 -54.5t-15 -70.5t-26 -16h-579q-27 0 -27 54.5t15 70.5t26 16h84q116 0 132 24 q6 8 5 19v319zM759 234v568q-83 65 -188 65q-187 0 -257 -181q-26 -69 -26 -174q0 -189 73.5 -283.5t175.5 -94.5t222 100z" />
<glyph unicode="r" horiz-adv-x="901" d="M734 1020l24 1q20 0 50.5 -15.5t57 -46.5t26.5 -90t-42 -97t-95 -38t-90 39.5t-37 86.5q-58 -27 -88 -62t-50 -65l-44 -68v-524h243q23 0 23 -55t-14.5 -70.5t-26.5 -15.5h-582q-28 0 -28 53q0 56 27 81q8 7 56 7q107 0 107 43v659h-176q-39 0 -39 64.5t26 74.5 q53 22 144.5 30t117.5 8h49q37 1 44 -14.5t6 -58.5l-1 -40q0 -12 -0.5 -24t-0.5 -22q174 159 313 159z" />
<glyph unicode="s" horiz-adv-x="926" d="M347 134h114q139 0 187 85q14 26 14 57q0 58 -53.5 91t-163 66.5t-166.5 58t-99 58.5q-86 72 -86 198q0 185 207 249q77 24 153 24q162 0 258 -44q120 -55 119 -159q1 -58 -38 -97t-99 -40q-94 0 -128 82q-10 25 -10 41t12 76h-99q-81 0 -120 -28q-71 -49 -71 -108 q0 -78 140 -126l76 -26q193 -64 248 -109q104 -85 104 -216q0 -134 -102 -211q-101 -76 -256.5 -76t-256.5 38q-155 58 -155 162q0 64 39.5 103t98.5 39q58 0 98 -38.5t40 -87t-5 -62.5z" />
<glyph unicode="t" horiz-adv-x="731" d="M27 847q0 154 37 154h16q155 0 159 43l43 221q12 55 130 55v-319h270q25 0 25 -56q0 -60 -25 -89q-8 -10 -20 -9h-250v-590q0 -112 66 -112q75 0 106.5 11.5t49.5 11.5t35.5 -26.5t17.5 -54.5q0 -30 -19 -39q-129 -68 -246 -68q-205 0 -205 277v590h-190z" />
<glyph unicode="u" horiz-adv-x="1234" d="M834 96q-159 -116 -287 -116q-252 0 -324 202q-24 67 -24 156v509h-141q-37 0 -37 63t20 68q168 43 307 43q44 0 46 -80v-530q0 -195 100 -233q30 -12 74 -12q124 0 212 66l43 32v583h-137q-41 0 -41 59q0 62 27 72q42 18 173 36q60 8 97 8q44 0 54 -12q22 -18 22 -116 v-753h168q27 0 27 -67.5t-41 -73.5q-102 -16 -182 -16t-94 8q-30 17 -62 104z" />
<glyph unicode="v" horiz-adv-x="1096" d="M1092 944q0 -84 -48 -84q-39 0 -55.5 -9.5t-25.5 -33.5l-334 -817q-7 -18 -39 -19t-68 -1t-45 20l-335 860h-112q-26 0 -26 54.5t14 70.5t25 16h434q25 0 25 -54.5t-15 -70.5t-26 -16q-88 0 -88 -43l198 -549l242 592h-131q-26 0 -26 55t13.5 70.5t22.5 15.5h375 q25 0 25 -57z" />
<glyph unicode="w" horiz-adv-x="1563" d="M1531 1001q24 0 24 -70.5t-40 -70.5q-76 0 -88 -43l-244 -817q-7 -20 -73.5 -20t-73.5 20l-235 587l-239 -587q-8 -20 -78 -20h-22q-55 0 -59 20l-241 860h-129q-25 0 -25 54.5t15 70.5t24 16h434q25 0 25 -54.5t-15 -70.5t-26 -16q-88 0 -88 -43l136 -601l249 690 q9 19 50 19q44 0 52 -18l254 -705l159 658h-131q-26 0 -26 54t13.5 70.5t22.5 16.5h375z" />
<glyph unicode="x" horiz-adv-x="1174" d="M1113 141q26 -1 26 -55t-15 -70t-26 -16h-425q-27 0 -27 54t28 80q8 7 14 7h83l-221 274l-176 -244q-7 -10 -7 -17q0 -13 18 -13h57q26 -1 26 -55t-15 -70t-26 -16h-366q-26 0 -26 54t26 80q7 7 38 7t67 17t53 38l246 324l-273 340h-122q-27 0 -27 54t14.5 70.5 t24.5 16.5h437q23 0 23 -55t-15.5 -70.5t-26.5 -15.5q-64 0 -64 -18q0 -7 7 -16l190 -238l203 272h-124q-26 0 -26 55t13.5 70.5t22.5 15.5h384q24 -1 24 -55t-15 -70t-25 -16q-76 0 -110 -43l-265 -331l230 -289q47 -56 151 -56h17z" />
<glyph unicode="y" horiz-adv-x="1098" d="M172 -126q143 0 145 -160q32 0 55.5 36t41 77t30 77.5t21 64.5t11.5 37l-332 854h-112q-26 0 -26 54.5t14 70.5t25 16h434q25 0 25 -54t-15.5 -70.5t-25.5 -16.5q-88 0 -88 -43l203 -594l237 637h-131q-26 0 -26 55t13.5 70.5t22.5 15.5h375q25 0 25 -57q0 -84 -48 -84 q-39 0 -55.5 -9.5t-25.5 -33.5l-422 -1077q-32 -83 -104 -131.5t-177 -48.5q-140 0 -196 92q-20 33 -20 86q0 57 40 97q38 39 85 39h1z" />
<glyph unicode="z" horiz-adv-x="1007" d="M75 736q0 3 4 23l44 242h800v-111l-569 -740h415l47 109q10 21 42 21t57 -12t25 -30q0 -5 -1 -7l-72 -231h-778v110l569 741h-393l-30 -110q-11 -42 -85.5 -42t-74.5 37z" />
<glyph unicode="{" horiz-adv-x="667" d="M637 -19q28 0 28 -70.5t-28 -70.5h-164q-139 0 -203 68.5t-64 241.5v321q0 76 -22 103t-93 37q-29 4 -29 68.5t29 70.5q70 10 92.5 38.5t22.5 102.5v461q0 251 150 302q50 17 117 17h164q28 0 28 -69q0 -72 -28 -72h-79q-100 0 -128.5 -42.5t-28.5 -141.5v-443 q1 -125 -97 -187q-34 -22 -83 -34q180 -52 180 -225v-309q0 -92 19 -118q35 -49 138 -49h79z" />
<glyph unicode="|" horiz-adv-x="516" d="M335 -455q0 -28 -77 -28t-77 28v2063q0 28 77 28t77 -28v-2063z" />
<glyph unicode="}" horiz-adv-x="667" d="M2 1602q0 69 28 69h168q133 0 197.5 -72.5t65.5 -246.5v-469q0 -68 22.5 -95.5t92.5 -37.5q29 -6 29 -57.5t-10.5 -66t-51.5 -20t-61.5 -32t-20.5 -96.5v-328q0 -250 -150 -295q-50 -15 -117 -15h-164q-28 0 -28 70.5t28 70.5h83q97 0 125 38t28 138v300q0 172 180 225 q-180 45 -180 221v443q0 100 -20 130q-37 54 -137 54h-79q-28 0 -28 72z" />
<glyph unicode="~" horiz-adv-x="1218" d="M203 465q-37 1 -65.5 28t-28.5 64q65 119 179 175q48 24 92.5 24t81.5 -11q66 -19 164 -62l84 -35q96 -38 131 -38t60 15.5t46 37t38 43t31 33.5q38 0 68 -28.5t30 -63.5q-54 -121 -168 -180q-48 -25 -97 -25q-102 0 -261 66l-84 32q-94 34 -112.5 34t-36 0.5 t-43.5 -13.5t-47 -32t-36 -36.5t-26 -27.5z" />
<glyph unicode="&#xa1;" horiz-adv-x="568" d="M409 956q10 -26 10 -71t-37 -84.5t-96 -39.5q-58 0 -100 40t-42 100.5t42 99.5t100 39q90 0 123 -84zM283 626q86 0 86 -44l47 -991q-49 -30 -140.5 -30t-125.5 32l50 992q0 27 54 38q14 3 29 3z" />
<glyph unicode="&#xa2;" horiz-adv-x="1002" d="M467 1403q29 29 70.5 29t70.5 -29v-189q196 -12 268 -106q26 -36 25.5 -91t-39 -93t-96.5 -38t-97.5 38t-39.5 96q0 19 9 55h-93q-104 0 -179 -79q-96 -101 -96 -291q0 -279 155 -353q48 -24 98 -24h27q26 0 86 17t136 63l72 43q4 3 18 3t42 -39t28 -64t-18 -39 q-43 -34 -125.5 -75.5t-180.5 -54.5v-182q-25 -27 -69.5 -27t-71.5 27v176q-192 14 -297 156t-105 364t110.5 352.5t291.5 160.5v194z" />
<glyph unicode="&#xa3;" horiz-adv-x="1164" d="M862 760q32 0 39 -75q0 -46 -14.5 -62.5t-24.5 -16.5h-263q-4 -39 -7 -84.5t-18 -132.5t-75 -199q149 -56 241.5 -56t123.5 19q55 34 102 129q12 23 48 23t61.5 -16t29.5 -42q-83 -267 -279 -267q-180 0 -430 72q-13 -6 -34 -18q-92 -54 -152 -54t-104.5 44.5 t-44.5 109.5q0 66 45 111t103 45t92 -20l46 -26q41 104 41 362h-232q-36 0 -40 76q-1 25 10 51.5t30 26.5h232v433q0 167 118 257q98 75 237 75h4q165 0 239 -46q21 -14 21 -59q-1 -69 -41 -111q-12 -13 -24 -13t-64 24.5t-140 24.5h-3q-66 0 -101 -50.5t-35 -184.5v-350 h263z" />
<glyph unicode="&#xa4;" horiz-adv-x="1184" d="M820 250q-111 -75 -233 -75t-228 69l-113 -118q-57 0 -102 45t-45 96l116 117q-82 125 -82 266.5t80 261.5l-116 116q1 59 46 101t101 42l116 -116q103 66 226.5 66t231.5 -73l122 125h3q54 0 99 -42t45 -99l-125 -127q78 -121 78 -256.5t-74 -253.5l123 -124 q0 -53 -46 -98t-100 -45h-2zM777.5 447q71.5 82 71.5 204t-72 204.5t-185.5 82.5t-185.5 -83.5t-72 -203.5t71 -203t186 -83t186.5 82z" />
<glyph unicode="&#xa5;" horiz-adv-x="1275" d="M212 785q-34 0 -41 76q0 46 15 62t26 16h169l-184 425h-112q-26 0 -26 54.5t14 70.5t25 16h470q25 0 25 -54.5t-15 -70.5t-26 -16q-106 0 -106 -35q0 -4 6 -22l227 -525l239 582h-86q-26 0 -26 55t13.5 70.5t22.5 15.5h350q25 0 25 -54.5t-24 -78.5q-9 -8 -37 -8 q-71 0 -88 -43l-156 -382h146q34 0 38 -75q1 -22 -8 -51q-10 -28 -30 -28h-209l-89 -219h298q34 0 38 -74q1 -23 -8 -52q-10 -28 -30 -28h-301v-271h189q26 0 26 -54.5t-15 -70.5t-26 -16h-573q-25 0 -25 53.5t27 80.5q8 8 16 7h61q91 0 105 25q4 8 4 18v228h-330 q-28 0 -38 52q-2 12 -2 32t10.5 45t29.5 25h327l-95 219h-236z" />
<glyph unicode="&#xa6;" horiz-adv-x="522" d="M184 1608q0 28 77 28t77 -28v-914h-154v914zM338 -455q0 -28 -77 -28t-77 28v971h154v-971z" />
<glyph unicode="&#xa7;" horiz-adv-x="1148" d="M768 1393q-60 36 -142 36q-152 0 -233 -58.5t-81 -150.5t88 -156q42 -32 102 -62l136 -70q221 -110 321.5 -209t100.5 -247h-1q0 -84 -59 -238q60 -90 60 -190q0 -193 -143.5 -308t-361.5 -115h-4q-170 0 -315 71q-169 83 -169 209q0 66 45 111t109 45q65 0 109 -45.5 t44 -110.5q0 -30 -11.5 -54t-16.5 -38q65 -35 161 -35q160 0 253 73q89 73 89 187t-205 222l-269 136q-273 144 -273 377q0 90 38 179l21 49q-60 91 -60 195q0 191 142.5 289t353.5 98q155 -1 291 -71q157 -80 157 -212q0 -65 -44 -110.5t-109 -45.5t-109.5 44.5t-44.5 94.5 t30 110zM843 384q6 24 6 67t-28 85q-53 79 -178 146l-325 171q-5 -28 -5 -64q0 -76 78.5 -144t240.5 -152z" />
<glyph unicode="&#xa8;" horiz-adv-x="1065" d="M178 1327q0 94 80 129q24 10 71 10t85 -40t37 -99q1 -59 -38 -98t-100 -39t-98 39t-37 98zM766 1190q-92 0 -125 82q-10 25 -10 55q0 95 80 129q25 10 55 10q58 0 97 -39t40 -100q0 -94 -82 -127q-25 -10 -55 -10z" />
<glyph unicode="&#xa9;" horiz-adv-x="1686" d="M67 756q0 209 104 385.5t282.5 280t389.5 103.5t390 -103.5t283 -281t103 -388.5q1 -211 -103 -387.5t-283 -280.5t-390 -104q-321 0 -549 225q-144 142 -200 341q-27 96 -27 199v11zM247.5 1007q-49.5 -119 -49.5 -255.5t49.5 -255.5t136.5 -207.5t205 -139.5t254 -51 q271 0 458 190t187 463t-187.5 464.5t-457.5 191.5q-136 0 -254 -51.5t-205 -140.5t-136.5 -208zM931 1103q-37 10 -83 10q-108 0 -182 -74q-96 -96 -96 -286q0 -279 155 -353q48 -24 98 -24h27q26 0 86 17t136 63l72 43q54 -15 76 -73q6 -18 6 -33t-4 -27 q-177 -143 -400.5 -143t-339.5 142.5t-116.5 385.5t140 379.5t359 136t305.5 -98.5q33 -38 33 -95.5t-39.5 -96.5t-97.5 -39t-98 38.5t-39 98.5v14q0 6 2 15z" />
<glyph unicode="&#xaa;" horiz-adv-x="915" d="M119 662q0 65 31 65h609q20 1 28 -41q2 -10 2 -20q0 -39 -11.5 -52.5t-18.5 -13.5h-609q-21 0 -29 42q-2 10 -2 20zM161 1392q0 132 275 132l2 1q114 -2 170 -70t56 -172v-321h106q16 0 16 -43t-26 -48q-40 -9 -156 -9q-21 0 -33 18t-24 53q-55 -44 -167 -67 q-34 -7 -72 -7q-82 0 -129.5 50t-47.5 115q0 113 69 173t159 60h182q0 97 -43 137.5t-124 40.5q-29 0 -48 -4q7 -16 7 -44t-24 -52.5t-61.5 -24.5t-62 24.5t-24.5 57.5zM260 1052q0 -76 80 -76h19q39 0 94.5 20t87.5 41v123h-161q-50 0 -85 -32t-35 -76z" />
<glyph unicode="&#xab;" horiz-adv-x="1186" d="M581 429q-39 31 -39 84q0 55 40 88l421 334q32 -1 61 -31t29 -64l-307 -305l307 -351q0 -34 -28 -64t-61 -30zM84 429q-41 33 -41 87t41 86l421 333q30 -1 59 -31t29 -64l-306 -305l306 -351q-1 -34 -27 -64t-60 -30z" />
<glyph unicode="&#xac;" horiz-adv-x="1119" d="M83 655q8 74 40 74h810q72 0 72 -84v-360q0 -27 -50 -37q-13 -2 -24 -2q-47 0 -63.5 14.5t-16.5 24.5v290h-727q-28 0 -38 52q-3 17 -3 28z" />
<glyph unicode="&#xad;" horiz-adv-x="750" d="M159 604q8 85 41 85h447q31 0 38 -85q0 -52 -14.5 -71.5t-24.5 -19.5h-447q-27 0 -37 61q-3 18 -3 30z" />
<glyph unicode="&#xae;" horiz-adv-x="1088" d="M68 980q0 197 139.5 336.5t336.5 139.5t336.5 -139.5t139.5 -336.5q0 -196 -139 -335t-337 -139t-337 139t-139 335zM575 756q10 -4 10 -30.5t-15 -32.5h-220q-9 9 -9 24t5.5 26.5t10.5 12.5q26 0 31 4t5 13v416q0 6 -5 6h-42q-15 4 -15 30.5t10 32.5h228 q87 0 138.5 -41.5t51.5 -113.5q0 -115 -114 -156l109 -168q19 -28 78 -33q80 104 80 248t-109 254t-259 111q-152 -1 -260 -111t-108 -267q0 -155 108 -266t251.5 -111t245.5 89h-43q-42 0 -67 39l-127 200q-26 -2 -53 -2v-174h84zM491 1001q85 0 111 11q50 22 50 90 q0 90 -161 90v-191z" />
<glyph unicode="&#xaf;" horiz-adv-x="1065" d="M208 1237q-16 0 -16 67t16 67h637q11 0 13 -17.5t2 -67t-15 -49.5h-637z" />
<glyph unicode="&#xb0;" horiz-adv-x="855" d="M348 954q36 -14 58 -14h44q22 0 58 14q120 46 120 186q0 89 -57 148t-143 59t-143.5 -59.5t-57.5 -147.5q1 -138 121 -186zM169 885q-102 100 -102 254.5t103 259.5t259.5 105t257.5 -104.5t101 -260.5t-100 -255t-258.5 -99t-260.5 100z" />
<glyph unicode="&#xb1;" horiz-adv-x="1093" d="M126 0q-34 0 -41 76q0 46 15 62t26 16h842q34 0 38 -74q1 -23 -8 -52q-10 -28 -30 -28h-842zM98 646q-17 0 -17 72t17 72h376v308q0 16 72 16t72 -16v-308h377q16 0 16 -72t-16 -72h-377v-338q0 -16 -72 -16t-72 16v338h-376z" />
<glyph unicode="&#xb2;" horiz-adv-x="808" d="M269 1232q-29 -29 -72.5 -29t-73.5 29.5t-30 77.5q0 97 83 155.5t220 59.5h3q211 0 275 -121q22 -39 22 -101.5t-26 -111.5t-65.5 -85.5t-89 -67t-97.5 -64.5q-114 -80 -151 -181h328l28 78q17 13 45.5 13t44.5 -29l-31 -208h-569v43q1 194 199 354q126 101 162 151.5 t36 109.5t-41.5 95t-92.5 36t-77 -9t-49 -32q32 -13 44 -61q4 -14 4 -26q0 -47 -29 -76z" />
<glyph unicode="&#xb3;" horiz-adv-x="800" d="M252 764q41 -41 130 -41h2q58 0 95.5 48.5t37.5 125.5v6q0 67 -21 97q-40 58 -126 67v54q67 34 100.5 72.5t33.5 102.5t-40.5 101.5t-85.5 37.5h-2q-89 0 -129 -40q31 -15 45 -58q4 -12 4 -21q0 -54 -29 -84t-74 -30t-74.5 30t-29.5 82q0 97 97.5 153.5t219.5 57.5 q204 0 266 -127q19 -40 19 -97.5t-51 -112t-123 -80.5q99 -41 131 -69q71 -62 71 -159q0 -182 -188 -230q-58 -16 -90 -16h-34q-122 0 -219.5 58t-98.5 151q0 50 31.5 78.5t75 28.5t73 -29.5t29.5 -76t-46 -80.5z" />
<glyph unicode="&#xb4;" horiz-adv-x="1065" d="M539 1188q-43 0 -71 32t-28 76l273 285h3q62 1 104 -43t42 -115z" />
<glyph unicode="&#xb5;" horiz-adv-x="1239" d="M525 -20q-185 0 -244 159q14 -182 88 -504q-8 -32 -41 -53t-78 -21q-86 0 -86 59v1381h195v-366q0 -365 95 -441q34 -28 87 -28q114 0 181 146.5t67 441.5v247h145q49 0 49 -40v-646q0 -105 17 -133.5t32.5 -34.5t34.5 -6h84q29 -9 29 -47q0 -82 -43 -94q-7 -1 -27 -3 l-44 -5q-66 -6 -104 -6q-76 0 -119.5 54t-43.5 163q-32 -100 -72 -140q-80 -83 -202 -83z" />
<glyph unicode="&#xb6;" horiz-adv-x="1579" d="M549 0q-25 0 -25 53t28 81q8 8 34 8q128 -2 129 42v445h-152q-231 1 -367.5 111.5t-136.5 303.5q0 232 169.5 346.5t489.5 114.5h766q25 0 25 -70.5t-35 -70.5h-180v-1223h168q26 0 26 -54.5t-15 -70.5t-26 -16h-898zM323.5 1229.5q-31.5 -52.5 -31.5 -140.5 q0 -164 118 -237t305 -73v572q-217 0 -288.5 -34.5t-103 -87zM926 141h19q116 0 132 23q6 8 6 20v1164q0 16 -13 16h-144v-1223z" />
<glyph unicode="&#xb7;" horiz-adv-x="522" d="M261 428q-93 0 -127 81q-10 25 -10 69t39.5 83t97.5 39q93 0 127 -81q10 -25 10 -69t-40 -83t-97 -39z" />
<glyph unicode="&#xb8;" horiz-adv-x="1188" d="M649 -240q0 61 -136 61l-39 48l52 146h159l-36 -105q115 -20 155 -92q13 -22 13 -50q0 -208 -368 -208q-20 0 -30 19t-10 39q0 54 29 54q142 0 194 50q18 16 17 38z" />
<glyph unicode="&#xb9;" horiz-adv-x="720" d="M617 750q15 0 15 -51.5t-21 -51.5h-481q-12 0 -12 51.5t24 51.5h86q63 0 63 25v508q0 35 -9.5 35t-30.5 -9l-93 -39q-22 -9 -30 -9q-14 0 -33 30.5t-19 47t10 22.5l338 164h15q37 0 37 -12v-763h141z" />
<glyph unicode="&#xba;" horiz-adv-x="913" d="M125 662q0 65 31 65h609q20 1 28 -41q2 -10 2 -20q0 -39 -11.5 -52.5t-18.5 -13.5h-609q-21 0 -29 42q-2 10 -2 20zM430 837q-153 2 -235.5 99t-82.5 255t106 246t259 88h3q145 0 228.5 -97t83.5 -254.5t-99 -247t-259 -89.5h-4zM261 1186q0 -124 53 -185.5t142.5 -61.5 t137.5 69.5t48 153.5q0 141 -52.5 201t-137.5 60h-3q-123 0 -170 -119q-18 -46 -18 -118z" />
<glyph unicode="&#xbb;" horiz-adv-x="1184" d="M603 595q40 -32 40 -86t-41 -86l-420 -333q-31 0 -60 30t-29 65l306 305l-306 351q-1 33 27 63t61 31zM1102 595q41 -35 41 -87t-42 -85l-420 -333q-33 0 -61 30t-28 65l306 305l-306 351q0 33 28 63t60 31z" />
<glyph unicode="&#xbc;" horiz-adv-x="1770" d="M1326 1505q20 32 89 32t69 -32l-984 -1505q-22 -30 -94 -30t-72 30zM609 750q15 0 15 -51.5t-21 -51.5h-480q-13 -1 -13 51t24 52h86q63 0 63 25v508q0 35 -9.5 35t-30.5 -9l-93 -39q-22 -9 -30 -9q-14 0 -33 30.5t-19 47t10 22.5l338 164h15q37 0 37 -12v-763h141z M1018 228q-26 12 -32 52l318 600q69 0 116 -36t47 -68l-330 -435h245v189q0 59 185 59v-248h130q17 0 17 -41.5t-12 -56.5t-19 -15h-116v-125h105q17 0 17 -51.5t-25 -51.5h-455q-16 0 -16 36t12 51.5t18 15.5h83q76 0 76 25v100h-364z" />
<glyph unicode="&#xbd;" horiz-adv-x="1767" d="M1318 1505q20 32 89 32t69 -32l-984 -1505q-22 -30 -94 -30t-72 30zM601 750q15 0 15 -51.5t-21 -51.5h-480q-13 -1 -13 51t24 52h86q63 0 63 25v508q0 35 -9.5 35t-30.5 -9l-93 -39q-22 -9 -30 -9q-14 0 -33 30.5t-19 47t10 22.5l338 164h15q37 0 37 -12v-763h141z M1252 582q-29 -29 -72.5 -29t-73.5 29.5t-30 77.5q0 97 83 155.5t220 59.5h3q210 0 274 -121q22 -40 22 -102q0 -114 -90 -196q-40 -38 -89 -68t-97 -64q-114 -80 -152 -181h328l28 78q17 13 45.5 13t44.5 -29l-31 -208h-569v43q0 194 198 354q126 101 162.5 151.5t36.5 111 t-41 95t-92.5 34.5t-77.5 -9t-49 -32q33 -13 45 -61q4 -14 3 -26q0 -47 -29 -76z" />
<glyph unicode="&#xbe;" horiz-adv-x="1831" d="M1338 1505q20 32 89 32t69 -32l-984 -1505q-22 -30 -94 -30t-72 30zM1080 228q-26 12 -32 52l318 600q69 0 116 -36t47 -68l-330 -435h245v189q0 59 185 59v-248h130q17 0 17 -41.5t-12 -56.5t-19 -15h-116v-125h105q17 0 17 -51.5t-25 -51.5h-455q-16 0 -16 36t12 51.5 t18 15.5h83q76 0 76 25v100h-364zM245 764q41 -41 130 -41h2q58 0 95.5 48.5t37.5 123t-22 105.5q-40 58 -125 67v54q67 34 100.5 72.5t33.5 102.5t-40.5 101.5t-85.5 37.5h-2q-89 0 -129 -40q31 -15 45 -58q4 -12 4 -21q0 -54 -29 -84t-74 -30t-74.5 30t-29.5 82 q0 97 97.5 153.5t219.5 57.5q205 0 267 -127q18 -38 18 -96.5t-50.5 -113t-123.5 -80.5q99 -41 131 -69q71 -62 71 -159q0 -182 -188 -230q-58 -16 -90 -16h-34q-123 0 -220.5 58t-97.5 151q0 50 31.5 78.5t75 28.5t73 -29.5t29.5 -76t-46 -80.5z" />
<glyph unicode="&#xbf;" horiz-adv-x="949" d="M653 -273q-23 41 -23 94.5t41 92t85 38.5q76 -1 115 -39.5t39 -92.5q0 -129 -160 -201q-119 -57 -236 -57q-211 0 -320.5 103t-110 253t116.5 272q52 54 116 104l129 101v155q0 45 63 59q18 4 38 4q94 0 94 -63v-178q-55 -49 -115 -90.5t-110 -89.5q-115 -109 -115 -252 q0 -102 62.5 -163t166.5 -61h35q45 0 89 11zM531 1018q107 0 143 -84q11 -26 11 -68.5t-40.5 -84.5t-99.5 -42t-99.5 40.5t-40.5 100t41 99t85 39.5z" />
<glyph unicode="&#xc0;" horiz-adv-x="1424" d="M13 0q-25 0 -25 54t24 79q8 8 36 8q74 0 97 57l509 1307q8 20 57 20t57 -20l533 -1364h117q26 0 26 -55t-14.5 -70.5t-24.5 -15.5h-485q-25 0 -25 54t15 70.5t26 16.5q124 0 124 24q0 9 -8 25l-119 309h-507l-139 -358h172q26 0 26 -55t-13.5 -70.5t-22.5 -15.5h-436z M485 653h389l-193 504zM321 1833q0 109 90 147q25 11 41 11h18l273 -285q-1 -44 -29 -76t-69 -32z" />
<glyph unicode="&#xc1;" horiz-adv-x="1424" d="M13 0q-25 0 -25 54t24 79q8 8 36 8q74 0 97 57l509 1307q8 20 57 20t57 -20l533 -1364h117q26 0 26 -55t-14.5 -70.5t-24.5 -15.5h-485q-25 0 -25 54t15 70.5t26 16.5q124 0 124 24q0 9 -8 25l-119 309h-507l-139 -358h172q26 0 26 -55t-13.5 -70.5t-22.5 -15.5h-436z M485 653h389l-193 504zM782 1598q-42 0 -70 32t-29 76l273 285h3q62 1 104 -43t42 -115z" />
<glyph unicode="&#xc2;" horiz-adv-x="1424" d="M465 1610q-34 0 -59 30t-25 70l256 176q41 29 73 29t77 -29l256 -176q0 -64 -51 -92q-15 -8 -33 -8l-246 116zM13 0q-25 0 -25 54t24 79q8 8 36 8q74 0 97 57l509 1307q8 20 57 20t57 -20l533 -1364h117q26 0 26 -55t-14.5 -70.5t-24.5 -15.5h-485q-25 0 -25 54t15 70.5 t26 16.5q124 0 124 24q0 9 -8 25l-119 309h-507l-139 -358h172q26 0 26 -55t-13.5 -70.5t-22.5 -15.5h-436zM485 653h389l-193 504z" />
<glyph unicode="&#xc3;" horiz-adv-x="1424" d="M381 1627q-39 1 -66 28t-28 64q65 117 179 174q48 24 99.5 24t88 -22.5t71.5 -50t70.5 -50t69 -22.5t58.5 15.5t46 36.5t38 43t31 34q38 0 68 -28.5t30 -63.5q-54 -121 -168 -180q-48 -25 -96.5 -25t-77.5 10q-57 19 -125.5 70.5t-116.5 51.5l-2 1q-74 -1 -144 -83 q-16 -18 -25 -27zM13 0q-25 0 -25 54.5t24 78.5q8 8 36 8q74 0 97 57l509 1307q8 20 57 20t57 -20l533 -1364h117q26 0 26 -55t-14.5 -70.5t-24.5 -15.5h-485q-25 0 -25 53.5t15 70.5t26 17q124 0 124 24q0 9 -8 25l-119 309h-507l-139 -358h172q26 0 26 -55t-13.5 -70.5 t-22.5 -15.5h-436zM485 653h389l-193 504z" />
<glyph unicode="&#xc4;" horiz-adv-x="1424" d="M13 0q-25 0 -25 54.5t24 78.5q8 8 36 8q74 0 97 57l509 1307q8 20 57 20t57 -20l533 -1364h117q26 0 26 -55t-14.5 -70.5t-24.5 -15.5h-485q-25 0 -25 53.5t15 70.5t26 17q124 0 124 24q0 9 -8 25l-119 309h-507l-139 -358h172q26 0 26 -55t-13.5 -70.5t-22.5 -15.5h-436 zM485 653h389l-193 504zM355 1759q0 92 79 127q24 10 71 10t85 -40t38 -99t-39 -98t-100 -39t-97.5 39t-36.5 100zM943 1620q-92 0 -125 82q-10 25 -10 55q0 95 80 129q25 10 55 10q59 0 98 -39t39 -100q0 -94 -82 -127q-25 -10 -55 -10z" />
<glyph unicode="&#xc5;" horiz-adv-x="1420" d="M11 0q-25 0 -25 54.5t24 78.5q8 8 36 8q74 0 97 57l473 1215q-60 25 -94 77t-34 107q0 97 60 161q62 63 157 63t156 -62t61 -138q0 -150 -122 -205l499 -1275h117q26 0 26 -55t-14.5 -70.5t-24.5 -15.5h-485q-25 0 -25 53.5t15 70.5t26 17q124 0 124 24q0 9 -8 25 l-119 309h-507l-139 -358h172q26 0 26 -55t-13.5 -70.5t-22.5 -15.5h-436zM483 653h389l-193 504zM627 1612q0 -35 23.5 -59.5t58.5 -24.5t58.5 24.5t23.5 59.5t-23.5 59.5t-58.5 24.5t-58.5 -24.5t-23.5 -59.5z" />
<glyph unicode="&#xc6;" horiz-adv-x="1875" d="M1477 453q-72 0 -72 27v151h-337l18 -477h284q143 0 191 17t77.5 47t43.5 85q4 21 32 21q110 0 111 -42v-8q-14 -102 -45.5 -177.5t-46.5 -96.5h-1020q-27 0 -27 55t24 79q8 8 56 8q109 -2 109 42l-17 447h-391l-194 -490h112q26 0 26 -55t-13.5 -70.5t-22.5 -15.5h-387 q-25 0 -25 54t16 71t25 18q48 4 76 14.5t40 40.5l495 1271q14 36 56 36h1113v-291q0 -34 -70.5 -34t-70.5 22q0 84 -22 108q-39 41 -142 41h-439l22 -566h278q46 0 56.5 27t10.5 124q0 23 56 23t71 -14t15 -23v-428q0 -41 -72 -41zM829 1350q1 14 -17 14q-57 0 -77 -51 l-209 -528h326z" />
<glyph unicode="&#xc7;" horiz-adv-x="1277" d="M785 -240q0 61 -136 61l-39 48l41 115q-239 25 -393 215t-154.5 555.5t186.5 568t485 202.5h3q157 0 295 -80t138 -204q-1 -64 -44.5 -109t-108.5 -45t-109.5 44.5t-44.5 104.5t22 99q-59 36 -155 36q-192 0 -313.5 -151.5t-121.5 -396.5q0 -507 249 -637q79 -42 161 -42 h2q161 0 287 84q59 40 79 40t47.5 -36.5t27.5 -63t-17 -42.5q-47 -43 -141.5 -86t-220.5 -55l-25 -75q115 -20 155 -92q14 -24 13 -54q0 -204 -368 -204q-20 0 -30 19t-10 39q0 54 29 54q142 0 194 50q18 16 17 38z" />
<glyph unicode="&#xc8;" horiz-adv-x="1288" d="M114 1364q-34 0 -41 78q0 63 26 63h1100v-291q0 -34 -70.5 -34t-70.5 22q0 84 -22 108q-39 41 -142 41h-393v-503h254q46 0 56.5 27t10.5 124q0 23 56 23t71 -14t15 -23v-428q0 -41 -72 -41t-72 27v151h-319v-540h530l76 149q9 19 37 19q96 0 97 -41q0 -5 -1 -7l-92 -274 h-1020q-27 0 -26.5 55t24.5 79q8 8 35 8q129 -2 129 42v1166q0 14 -12 14h-164zM411 1833q0 109 90 147q25 11 41 11h18l273 -285q-1 -43 -29 -75.5t-69 -32.5z" />
<glyph unicode="&#xc9;" horiz-adv-x="1288" d="M114 1364q-34 0 -41 78q0 63 26 63h1100v-291q0 -34 -70.5 -34t-70.5 22q0 84 -22 108q-39 41 -142 41h-393v-503h254q46 0 56.5 27t10.5 124q0 23 56 23t71 -14t15 -23v-428q0 -41 -72 -41t-72 27v151h-319v-540h530l76 149q9 19 37 19q96 0 97 -41q0 -5 -1 -7l-92 -274 h-1020q-27 0 -26.5 55t24.5 79q8 8 35 8q129 -2 129 42v1166q0 14 -12 14h-164zM683 1598q-42 0 -70.5 32.5t-28.5 75.5l273 285h3q62 0 104 -43.5t42 -114.5z" />
<glyph unicode="&#xca;" horiz-adv-x="1288" d="M450 1610q-56 0 -78 63q-6 18 -6 37l256 176q44 29 75 29t74 -29l256 -176q0 -64 -51 -92q-15 -8 -33 -8l-246 116zM114 1364q-34 0 -41 78q0 63 26 63h1100v-291q0 -34 -70.5 -34t-70.5 22q0 84 -22 108q-39 41 -142 41h-393v-503h254q46 0 56.5 27t10.5 124q0 23 56 23 t71 -14t15 -23v-428q0 -41 -72 -41t-72 27v151h-319v-540h530l76 149q9 19 37 19q96 0 97 -41q0 -5 -1 -7l-92 -274h-1020q-27 0 -26.5 55t24.5 79q8 8 35 8q129 -2 129 42v1166q0 14 -12 14h-164z" />
<glyph unicode="&#xcb;" horiz-adv-x="1288" d="M114 1364q-34 0 -41 78q0 63 26 63h1100v-291q0 -34 -70.5 -34t-70.5 22q0 84 -22 108q-39 41 -142 41h-393v-503h254q46 0 56.5 27t10.5 124q0 23 56 23t71 -14t15 -23v-428q0 -41 -72 -41t-72 27v151h-319v-540h530l76 149q9 19 37 19q96 0 97 -41q0 -5 -1 -7l-92 -274 h-1020q-27 0 -26.5 55t24.5 79q8 8 35 8q129 -2 129 42v1166q0 14 -12 14h-164zM324 1757q0 94 80 129q24 10 71 10t85 -40t37 -99q1 -59 -38 -98t-100 -39t-98 39t-37 98zM912 1620q-92 0 -125 82q-10 25 -10 55q0 95 80 129q25 10 55 10q58 0 97 -39t40 -100 q0 -94 -82 -127q-25 -10 -55 -10z" />
<glyph unicode="&#xcc;" horiz-adv-x="791" d="M670 141q26 0 26 -54.5t-15 -70.5t-26 -16h-532q-23 0 -23 53t28 81q8 8 34 8q128 -2 129 42v1164q0 16 -13 16h-163q-29 0 -39 54q-2 14 -2 28q0 59 26 59h592q25 0 25 -70.5t-35 -70.5h-180v-1223h168zM57 1833q0 109 90 147q25 11 41 11h18l273 -285q-1 -43 -29 -75.5 t-69 -32.5z" />
<glyph unicode="&#xcd;" horiz-adv-x="791" d="M670 141q26 0 26 -54.5t-15 -70.5t-26 -16h-532q-23 0 -23 53t28 81q8 8 34 8q128 -2 129 42v1164q0 16 -13 16h-163q-29 0 -39 54q-2 14 -2 28q0 59 26 59h592q25 0 25 -70.5t-35 -70.5h-180v-1223h168zM412 1598q-42 0 -70.5 32.5t-28.5 75.5l273 285h3q62 0 104 -43.5 t42 -114.5z" />
<glyph unicode="&#xce;" horiz-adv-x="791" d="M670 141q26 0 26 -54.5t-15 -70.5t-26 -16h-532q-23 0 -23 53t28 81q8 8 34 8q128 -2 129 42v1164q0 16 -13 16h-163q-29 0 -39 54q-2 14 -2 28q0 59 26 59h592q25 0 25 -70.5t-35 -70.5h-180v-1223h168zM145 1610q-34 0 -59 30t-25 70l256 176q41 29 73.5 29t76.5 -29 l256 -176q0 -64 -51 -92q-15 -8 -33 -8l-246 116z" />
<glyph unicode="&#xcf;" horiz-adv-x="791" d="M670 141q26 0 26 -54.5t-15 -70.5t-26 -16h-532q-23 0 -23 53t28 81q8 8 34 8q128 -2 129 42v1164q0 16 -13 16h-163q-29 0 -39 54q-2 14 -2 28q0 59 26 59h592q25 0 25 -70.5t-35 -70.5h-180v-1223h168zM35 1759q0 92 79 127q24 10 71 10t85 -40t38 -99t-39 -98 t-100 -39t-97.5 39t-36.5 100zM623 1620q-92 0 -125 82q-10 25 -10 55q0 95 80 129q25 10 55 10q59 0 98 -39t39 -100q0 -94 -82 -127q-25 -10 -55 -10z" />
<glyph unicode="&#xd0;" horiz-adv-x="1527" d="M124 1364q-34 0 -41 78q0 63 26 63h582q395 0 563.5 -184t168.5 -565t-229 -580q-202 -175 -503 -176h-553q-27 0 -27 51.5t26 81.5q7 9 58 9.5t78 9t27 32.5v510h-170v154h170v502q0 14 -12 14h-164zM511 154h147q214 0 373 148t159 421q0 468 -292 589q-94 39 -215 39 h-172v-503h254v-154h-254v-540z" />
<glyph unicode="&#xd1;" horiz-adv-x="1667" d="M515 1627q-39 1 -66 28t-28 64q65 117 179 174q48 24 99.5 24t88 -22.5t71.5 -50t70.5 -50t69 -22.5t58.5 15.5t46 36.5t38 43t31 34q38 0 68 -28.5t30 -63.5q-54 -121 -168 -180q-48 -25 -96.5 -25t-77.5 10q-57 19 -125.5 70.5t-116.5 51.5l-2 1q-74 -1 -144 -83 q-16 -18 -25 -27zM74 1446q0 59 26 59h348l793 -1160v1003q0 16 -13 16h-163q-29 0 -39 54q-2 14 -2 28q0 59 26 59h534q25 0 25 -70.5t-35 -70.5h-179v-1366q0 -18 -72.5 -18t-83.5 18l-794 1129v-986h168q27 0 27 -55.5t-15 -70.5t-27 -15h-473q-25 0 -25 53t28 81 q8 8 34 8q128 -2 129 42v1164q0 16 -13 16h-163q-29 0 -39 54q-2 14 -2 28z" />
<glyph unicode="&#xd2;" horiz-adv-x="1501" d="M288 161q-186 200 -186 578t185.5 582t487.5 203.5t462.5 -212.5t160.5 -587t-200 -571q-176 -174 -459.5 -174t-450.5 181zM581 187q79 -42 171 -42q187 0 294 129q122 149 122 434.5t-123 468.5t-301 183t-295 -148t-117 -389q0 -505 249 -636zM379 1833q0 109 90 147 q25 11 41 11h18l273 -285q-1 -43 -29 -75.5t-69 -32.5z" />
<glyph unicode="&#xd3;" horiz-adv-x="1501" d="M288 161q-186 200 -186 578t185.5 582t487.5 203.5t462.5 -212.5t160.5 -587t-200 -571q-176 -174 -459.5 -174t-450.5 181zM581 187q79 -42 171 -42q187 0 294 129q122 149 122 434.5t-123 468.5t-301 183t-295 -148t-117 -389q0 -505 249 -636zM775 1598 q-42 0 -70.5 32.5t-28.5 75.5l273 285h3q62 0 104 -43.5t42 -114.5z" />
<glyph unicode="&#xd4;" horiz-adv-x="1501" d="M509 1610q-34 0 -59 30t-25 70l256 176q41 29 74.5 29t75.5 -29l256 -176q0 -64 -51 -92q-15 -8 -33 -8l-246 116zM288 161q-186 200 -186 578t185.5 582t487.5 203.5t462.5 -212.5t160.5 -587t-200 -571q-176 -174 -459.5 -174t-450.5 181zM581 187q79 -42 171 -42 q187 0 294 129q122 149 122 434.5t-123 468.5t-301 183t-295 -148t-117 -389q0 -505 249 -636z" />
<glyph unicode="&#xd5;" horiz-adv-x="1501" d="M421 1627q-39 1 -66 28t-28 64q65 117 179 174q48 24 99.5 24t88 -22.5t71.5 -50t70.5 -50t69 -22.5t58.5 15.5t46 36.5t38 43t31 34q38 0 68 -28.5t30 -63.5q-54 -121 -168 -180q-48 -25 -96.5 -25t-77.5 10q-57 19 -125.5 70.5t-116.5 51.5l-2 1q-74 -1 -144 -83 q-16 -18 -25 -27zM288 161q-186 200 -186 578t185.5 582t487.5 203.5t462.5 -212.5t160.5 -587t-200 -571q-176 -174 -459.5 -174t-450.5 181zM581 187q79 -42 171 -42q187 0 294 129q122 149 122 434.5t-123 468.5t-301 183t-295 -148t-117 -389q0 -505 249 -636z" />
<glyph unicode="&#xd6;" horiz-adv-x="1501" d="M288 161q-186 200 -186 578t185.5 582t487.5 203.5t462.5 -212.5t160.5 -587t-200 -571q-176 -174 -459.5 -174t-450.5 181zM581 187q79 -42 171 -42q187 0 294 129q122 149 122 434.5t-123 468.5t-301 183t-295 -148t-117 -389q0 -505 249 -636zM386 1757q0 94 80 129 q24 10 71 10t85 -40t37 -99q1 -59 -38 -98t-100 -39t-98 39t-37 98zM974 1620q-92 0 -125 82q-10 25 -10 55q0 95 80 129q25 10 55 10q58 0 97 -39t40 -100q0 -94 -82 -127q-25 -10 -55 -10z" />
<glyph unicode="&#xd7;" horiz-adv-x="1143" d="M93 1004q0 83 68 104q19 6 38 6l369 -352l375 366q106 -6 106 -106l-370 -365l379 -362q0 -51 -27 -81t-80 -30l-383 365l-377 -371q-38 0 -72 32t-34 75l375 368z" />
<glyph unicode="&#xd8;" horiz-adv-x="1522" d="M1274 1275q135 -207 135 -566.5t-199 -554.5q-177 -173 -468 -174q-225 0 -382 124l-112 -143q-72 -27 -98 -27h-38q-13 2 -31 6t-18 21l196 247q-146 195 -146 523q0 386 185.5 590t486.5 204q249 0 403 -146l100 127q54 26 86 26q80 0 80 -26zM1042 1196 q-121 164 -293.5 164t-289 -147.5t-116.5 -396.5t68 -416zM774 145q281 1 372 309q33 112 33 240q0 222 -66 375l-624 -799q107 -125 285 -125z" />
<glyph unicode="&#xd9;" horiz-adv-x="1545" d="M82 1364q-34 0 -41 80q0 61 26 61h572q25 0 25 -70.5t-35 -70.5h-160v-786q0 -341 194 -411q61 -22 141 -22q166 0 244 103.5t78 326.5v773q0 16 -13 16h-144q-29 0 -39 54q-2 14 -2 28q0 59 26 59h516q26 0 26 -56t-13.5 -70.5t-22.5 -14.5h-169v-809q0 -575 -519 -575 q-280 0 -397 145.5t-117 443.5v779q0 16 -13 16h-163zM447 1833q0 109 90 147q25 11 41 11h18l273 -285q-1 -43 -29 -75.5t-69 -32.5z" />
<glyph unicode="&#xda;" horiz-adv-x="1545" d="M82 1364q-34 0 -41 80q0 61 26 61h572q25 0 25 -70.5t-35 -70.5h-160v-786q0 -341 194 -411q61 -22 141 -22q166 0 244 103.5t78 326.5v773q0 16 -13 16h-144q-29 0 -39 54q-2 14 -2 28q0 59 26 59h516q26 0 26 -56t-13.5 -70.5t-22.5 -14.5h-169v-809q0 -575 -519 -575 q-280 0 -397 145.5t-117 443.5v779q0 16 -13 16h-163zM857 1598q-42 0 -70.5 32.5t-28.5 75.5l273 285h3q62 0 104 -43.5t42 -114.5z" />
<glyph unicode="&#xdb;" horiz-adv-x="1545" d="M556 1610q-34 0 -59 30t-25 70l256 176q41 29 73.5 29t76.5 -29l256 -176q0 -64 -51 -92q-15 -8 -33 -8l-246 116zM82 1364q-34 0 -41 80q0 61 26 61h572q25 0 25 -70.5t-35 -70.5h-160v-786q0 -341 194 -411q61 -22 141 -22q166 0 244 103.5t78 326.5v773q0 16 -13 16 h-144q-29 0 -39 54q-2 14 -2 28q0 59 26 59h516q26 0 26 -56t-13.5 -70.5t-22.5 -14.5h-169v-809q0 -575 -519 -575q-280 0 -397 145.5t-117 443.5v779q0 16 -13 16h-163z" />
<glyph unicode="&#xdc;" horiz-adv-x="1545" d="M82 1364q-34 0 -41 80q0 61 26 61h572q25 0 25 -70.5t-35 -70.5h-160v-786q0 -341 194 -411q61 -22 141 -22q166 0 244 103.5t78 326.5v773q0 16 -13 16h-144q-29 0 -39 54q-2 14 -2 28q0 59 26 59h516q26 0 26 -56t-13.5 -70.5t-22.5 -14.5h-169v-809q0 -575 -519 -575 q-280 0 -397 145.5t-117 443.5v779q0 16 -13 16h-163zM445 1759q0 92 79 127q24 10 71 10t85 -40t38 -99t-39 -98t-100 -39t-97.5 39t-36.5 100zM1033 1620q-92 0 -125 82q-10 25 -10 55q0 95 80 129q25 10 55 10q59 0 98 -39t39 -100q0 -94 -82 -127q-25 -10 -55 -10z" />
<glyph unicode="&#xdd;" horiz-adv-x="1284" d="M268 0q-25 0 -25 54t27 80q8 8 16 7h149q91 0 105 25q4 8 4 18v375l-437 805h-112q-26 0 -26 54t14 70.5t25 16.5h493q25 -1 25 -55t-15 -70t-26 -16q-106 0 -106 -35q0 -10 6 -22l285 -572l316 629h-156q-26 0 -26 55t13.5 70.5t22.5 15.5h436q25 -1 25 -55t-24 -78 q-9 -8 -37 -8q-66 0 -88 -43l-397 -762v-418h245q26 -1 26 -55t-15 -70t-26 -16h-717zM721 1598q-43 0 -71 32t-28 76l273 285h3q62 1 104 -43t42 -115z" />
<glyph unicode="&#xde;" horiz-adv-x="1219" d="M125 0q-25 0 -25 53t28 81q8 8 34 8q128 -2 129 42v1164q0 16 -13 16h-163q-29 0 -39 54q-2 14 -2 28q0 59 26 59h592q25 0 25 -70.5t-35 -70.5h-180v-182h153q361 0 467 -218q35 -70 35 -164v-5q0 -461 -655 -461v-193h168q26 0 26 -54.5t-15 -70.5t-26 -16h-530z M798 974q-101 54 -296 54v-540q206 0 302 48q120 62 120 217.5t-126 220.5z" />
<glyph unicode="&#xdf;" horiz-adv-x="1191" d="M725 143q33 -9 94.5 -9t96 36.5t34.5 84.5q0 115 -126 175l-74 34q-94 43 -129 81q-70 75 -70 187q0 142 130 270q77 76 103.5 132.5t26.5 113.5v5q0 95 -57.5 135t-132.5 40l-2 1q-131 0 -204 -112t-73 -240v-991l-91 -100q-11 -6 -27 -6q-56 0 -104 40q-14 12 -18 24 l45 181v857q0 211 111 347q125 154 356 154q274 0 372 -181q36 -66 36 -145t-20.5 -127t-51 -87.5t-66.5 -72.5q-138 -129 -138 -194q0 -84 62 -132q28 -20 64 -38l74 -37q96 -48 130 -90q69 -82 68.5 -209t-93.5 -208.5t-225 -81.5t-225 38q-147 60 -147 162q0 64 39.5 103 t98.5 39q58 0 97.5 -38t39.5 -82.5t-4 -58.5z" />
<glyph unicode="&#xe0;" horiz-adv-x="1045" d="M378 880q12 -26 12 -73t-39 -86t-98 -40q-93 0 -127 82q-10 25 -10 61q0 73 76 124q110 73 340 73q183 0 270 -111q70 -90 69 -257v-512h168q27 0 27 -59q0 -26 -10 -51.5t-31 -30.5q-56 -16 -160.5 -16t-116.5 3.5t-26.5 16.5t-33.5 65q-122 -89 -285 -89t-248.5 79 t-85.5 202q0 156 106 237t254 81h247q0 167 -27.5 215.5t-66 67t-102.5 18.5h-102zM430 134q126 0 246 100v195h-204q-95 0 -132 -27q-69 -48 -69 -111q0 -118 98 -148q29 -9 61 -9zM210 1423q0 109 90 147q24 11 40 11h19l273 -285q0 -43 -28 -75.5t-70 -32.5z" />
<glyph unicode="&#xe1;" horiz-adv-x="1045" d="M378 880q12 -26 12 -73t-39 -86t-98 -40q-93 0 -127 82q-10 25 -10 61q0 73 76 124q110 73 340 73q183 0 270 -111q70 -90 69 -257v-512h168q27 0 27 -59q0 -26 -10 -51.5t-31 -30.5q-56 -16 -160.5 -16t-116.5 3.5t-26.5 16.5t-33.5 65q-122 -89 -285 -89t-248.5 79 t-85.5 202q0 156 106 237t254 81h247q0 167 -27.5 215.5t-66 67t-102.5 18.5h-102zM430 134q126 0 246 100v195h-204q-95 0 -132 -27q-69 -48 -69 -111q0 -118 98 -148q29 -9 61 -9zM522 1188q-42 0 -70.5 32.5t-28.5 75.5l273 285h3q62 0 104 -43.5t42 -114.5z" />
<glyph unicode="&#xe2;" horiz-adv-x="1045" d="M243 1200q-34 0 -59 30t-25 70l256 177q43 28 75 28t74 -28l256 -177q0 -64 -51 -92q-15 -8 -33 -8l-245 117zM378 880q12 -26 12 -73t-39 -86t-98 -40q-93 0 -127 82q-10 25 -10 61q0 73 76 124q110 73 340 73q183 0 270 -111q70 -90 69 -257v-512h168q27 0 27 -59 q0 -26 -10 -51.5t-31 -30.5q-56 -16 -160.5 -16t-116.5 3.5t-26.5 16.5t-33.5 65q-122 -89 -285 -89t-248.5 79t-85.5 202q0 156 106 237t254 81h247q0 167 -27.5 215.5t-66 67t-102.5 18.5h-102zM430 134q126 0 246 100v195h-204q-95 0 -132 -27q-69 -48 -69 -111 q0 -118 98 -148q29 -9 61 -9z" />
<glyph unicode="&#xe3;" horiz-adv-x="1045" d="M151 1217q-38 1 -66.5 28t-28.5 64q74 121 180 174q48 24 99.5 24t88 -22.5t71.5 -50t70.5 -50t69 -22.5t58.5 15.5t46 36.5t38 43t31 34q38 0 68 -28.5t30 -63.5q-54 -121 -168 -180q-48 -25 -105.5 -25t-98.5 21t-76 45l-68 46q-33 21 -68 21t-62 -14t-47.5 -32 t-36 -36.5t-25.5 -27.5zM378 880q12 -26 12 -73t-39 -86t-98 -40q-93 0 -127 82q-10 25 -10 61q0 73 76 124q110 73 340 73q183 0 270 -111q70 -90 69 -257v-512h168q27 0 27 -59q0 -26 -10 -51.5t-31 -30.5q-56 -16 -160.5 -16t-116.5 3.5t-26.5 16.5t-33.5 65 q-122 -89 -285 -89t-248.5 79t-85.5 202q0 156 106 237t254 81h247q0 167 -27.5 215.5t-66 67t-102.5 18.5h-102zM430 134q126 0 246 100v195h-204q-95 0 -132 -27q-69 -48 -69 -111q0 -118 98 -148q29 -9 61 -9z" />
<glyph unicode="&#xe4;" horiz-adv-x="1045" d="M378 880q12 -26 12 -73t-39 -86t-98 -40q-93 0 -127 82q-10 25 -10 61q0 73 76 124q110 73 340 73q183 0 270 -111q70 -90 69 -257v-512h168q27 0 27 -59q0 -26 -10 -51.5t-31 -30.5q-56 -16 -160.5 -16t-116.5 3.5t-26.5 16.5t-33.5 65q-122 -89 -285 -89t-248.5 79 t-85.5 202q0 156 106 237t254 81h247q0 167 -27.5 215.5t-66 67t-102.5 18.5h-102zM430 134q126 0 246 100v195h-204q-95 0 -132 -27q-69 -48 -69 -111q0 -118 98 -148q29 -9 61 -9zM114 1327q0 94 80 129q24 10 71 10t85 -40t37 -99q1 -59 -38 -98t-100 -39t-98 39t-37 98z M702 1190q-92 0 -125 82q-10 25 -10 55q0 95 80 129q25 10 55 10q58 0 97 -39t40 -100q0 -94 -82 -127q-25 -10 -55 -10z" />
<glyph unicode="&#xe5;" horiz-adv-x="1045" d="M474 1122q-96 0 -156.5 60.5t-60.5 150t60.5 151.5t156.5 62t157 -62t61 -151t-61 -150t-157 -61zM396 1337q0 -35 23.5 -59.5t58.5 -24.5t58.5 24.5t23.5 59.5t-23.5 59.5t-58.5 24.5t-58.5 -24.5t-23.5 -59.5zM378 880q12 -26 12 -73t-39 -86t-98 -40q-93 0 -127 82 q-10 25 -10 61q0 73 76 124q110 73 340 73q183 0 270 -111q70 -90 69 -257v-512h168q27 0 27 -59q0 -26 -10 -51.5t-31 -30.5q-56 -16 -160.5 -16t-116.5 3.5t-26.5 16.5t-33.5 65q-122 -89 -285 -89t-248.5 79t-85.5 202q0 156 106 237t254 81h247q0 167 -27.5 215.5 t-66 67t-102.5 18.5h-102zM430 134q126 0 246 100v195h-204q-95 0 -132 -27q-69 -48 -69 -111q0 -118 98 -148q29 -9 61 -9z" />
<glyph unicode="&#xe6;" horiz-adv-x="1590" d="M766 880q155 141 377 141q71 1 144 -31q224 -97 224 -432q0 -46 -43 -80t-110 -34h-521q11 -155 81.5 -232.5t177.5 -77.5t237 78l70 41q5 2 9 4t20 2t41 -39.5t25 -65t-10 -32.5q-183 -142 -399.5 -142t-332.5 132l-66 -43q-136 -89 -292 -89t-241.5 79t-85.5 202 q0 158 108 245t252 87h202q9 81 9 98q0 187 -160 187h-18q-12 0 -28 -1l-30 -2q-15 -1 -26 -4q12 -27 12 -69t-39 -81t-98 -40q-93 0 -127 82q-10 25 -10 61.5t19 68.5q51 85 201 114q73 14 139 14q212 0 289 -141zM680 235q-34 82 -46 208h-168q-83 0 -137.5 -43.5 t-54.5 -96.5q1 -89 44.5 -129t99.5 -40h30q111 0 232 101zM1110 866l-25 1q-21 0 -67 -17.5t-86 -51.5q-89 -78 -97 -204h472q-1 272 -197 272z" />
<glyph unicode="&#xe7;" horiz-adv-x="1004" d="M570 -240q0 61 -136 61l-39 48l42 118q-170 31 -263 169q-92 138 -92 366t140.5 363t359 135t305.5 -98q33 -38 33 -95t-40 -96.5t-97 -39.5t-97 38.5t-40 98.5q0 16 9 52h-93q-104 0 -179 -79q-96 -101 -96 -291q0 -278 155 -352q49 -24 117 -24q96 0 231 79l71 43 q3 3 18 3t43 -38.5t28 -63.5t-11 -34q-162 -121 -344 -139l-25 -74q114 -20 154 -92q14 -24 14 -54q0 -204 -368 -204q-20 0 -30 19t-10 39q0 54 29 54q141 0 193 50q18 16 18 38z" />
<glyph unicode="&#xe8;" horiz-adv-x="1042" d="M225.5 887q142.5 133 345.5 134h3q186 0 287 -116.5t101 -335.5q0 -47 -42.5 -80.5t-106.5 -33.5h-527q18 -234 163 -300q46 -21 97 -21t108 16.5t131 63t86.5 46.5t25.5 -12t32 -39t19.5 -53t-10.5 -34q-183 -142 -404 -142t-337 144t-115 387t143.5 376zM757 605 q1 262 -195 262q-99 0 -184 -69t-92 -193h471zM239 1423q0 109 90 147q25 11 41 11h18l273 -285q-1 -43 -29 -75.5t-69 -32.5z" />
<glyph unicode="&#xe9;" horiz-adv-x="1042" d="M225.5 887q142.5 133 345.5 134h3q186 0 287 -116.5t101 -335.5q0 -47 -42.5 -80.5t-106.5 -33.5h-527q18 -234 163 -300q46 -21 97 -21t108 16.5t131 63t86.5 46.5t25.5 -12t32 -39t19.5 -53t-10.5 -34q-183 -142 -404 -142t-337 144t-115 387t143.5 376zM757 605 q1 262 -195 262q-99 0 -184 -69t-92 -193h471zM573 1188q-42 0 -70.5 32.5t-28.5 75.5l273 285h3q62 0 104 -43.5t42 -114.5z" />
<glyph unicode="&#xea;" horiz-adv-x="1042" d="M301 1200q-34 0 -59 30t-25 70l256 177q42 28 74.5 28t74.5 -28l256 -177q0 -64 -51 -92q-15 -8 -33 -8l-246 117zM225.5 887q142.5 133 345.5 134h3q186 0 287 -116.5t101 -335.5q0 -47 -42.5 -80.5t-106.5 -33.5h-527q18 -234 163 -300q46 -21 97 -21t108 16.5t131 63 t86.5 46.5t25.5 -12t32 -39t19.5 -53t-10.5 -34q-183 -142 -404 -142t-337 144t-115 387t143.5 376zM757 605q1 262 -195 262q-99 0 -184 -69t-92 -193h471z" />
<glyph unicode="&#xeb;" horiz-adv-x="1042" d="M225.5 887q142.5 133 345.5 134h3q186 0 287 -116.5t101 -335.5q0 -47 -42.5 -80.5t-106.5 -33.5h-527q18 -234 163 -300q46 -21 97 -21t108 16.5t131 63t86.5 46.5t25.5 -12t32 -39t19.5 -53t-10.5 -34q-183 -142 -404 -142t-337 144t-115 387t143.5 376zM757 605 q1 262 -195 262q-99 0 -184 -69t-92 -193h471zM206 1327q0 94 80 129q24 10 71 10t85 -40t37 -99q1 -59 -38 -98t-100 -39t-98 39t-37 98zM794 1190q-92 0 -125 82q-10 25 -10 55q0 95 80 129q25 10 55 10q58 0 97 -39t40 -100q0 -94 -82 -127q-25 -10 -55 -10z" />
<glyph unicode="&#xec;" horiz-adv-x="662" d="M75 847q-41 1 -41 80q0 47 27 57q89 35 340 37h1q42 0 44 -85v-795h168q26 0 26 -54.5t-15 -70.5t-26 -16h-510q-26 0 -26 54.5t15 70.5t23 16h13q117 0 132 23q6 8 5 20v663h-176zM22 1423q0 109 90 147q24 11 40 11h19l273 -285q0 -43 -28 -75.5t-70 -32.5z" />
<glyph unicode="&#xed;" horiz-adv-x="662" d="M75 847q-41 1 -41 80q0 47 27 57q89 35 340 37h1q42 0 44 -85v-795h168q26 0 26 -54.5t-15 -70.5t-26 -16h-510q-26 0 -26 54.5t15 70.5t23 16h13q117 0 132 23q6 8 5 20v663h-176zM356 1188q-42 0 -70.5 32.5t-28.5 75.5l273 285h3q62 0 104 -43.5t42 -114.5z" />
<glyph unicode="&#xee;" horiz-adv-x="662" d="M59 1200q-34 0 -59 30t-25 70l256 177q43 28 75 28t74 -28l256 -177q0 -64 -51 -92q-15 -8 -33 -8l-245 117zM75 847q-41 1 -41 80q0 47 27 57q89 35 340 37h1q42 0 44 -85v-795h168q26 0 26 -54.5t-15 -70.5t-26 -16h-510q-26 0 -26 54.5t15 70.5t23 16h13q117 0 132 23 q6 8 5 20v663h-176z" />
<glyph unicode="&#xef;" horiz-adv-x="662" d="M75 847q-41 1 -41 80q0 47 27 57q89 35 340 37h1q42 0 44 -85v-795h168q26 0 26 -54.5t-15 -70.5t-26 -16h-510q-26 0 -26 54.5t15 70.5t23 16h13q117 0 132 23q6 8 5 20v663h-176zM-44 1327q0 94 80 129q24 10 71 10t85 -40t37 -99q1 -59 -38 -98t-100 -39t-98 39 t-37 98zM544 1190q-92 0 -125 82q-10 25 -10 55q0 95 80 129q25 10 55 10q58 0 97 -39t40 -100q0 -94 -82 -127q-25 -10 -55 -10z" />
<glyph unicode="&#xf0;" horiz-adv-x="1113" d="M722 953q-56 140 -214 279l-201 -163l-86 105l180 143q-96 69 -197 118q-25 12 -25 47q0 34 22.5 67.5t48.5 33.5t128 -57.5t161 -98.5l196 156q1 1 13 -15l69 -85l-170 -138q280 -237 343 -591q21 -118 21 -249q0 -253 -136 -389t-350.5 -136t-330.5 149t-116 371 t142 362t317 140q109 0 185 -49zM806 506q0 342 -270 342q-96 0 -174.5 -90t-78.5 -252q0 -273 155 -348q48 -24 112 -24q123 0 189.5 106t66.5 266z" />
<glyph unicode="&#xf1;" horiz-adv-x="1290" d="M323 1217q-39 1 -66 28t-28 64q65 117 179 174q48 24 99.5 24t88 -22.5t71.5 -50t70.5 -50t69 -22.5t58.5 15.5t46 36.5t38 43t31 34q38 0 68 -28.5t30 -63.5q-54 -121 -168 -180q-48 -25 -96.5 -25t-77.5 10q-57 19 -125.5 70.5t-116.5 51.5l-2 1q-74 -1 -144 -83 q-16 -18 -25 -27zM75 847q-41 1 -41 78q0 47 26 57q55 22 149.5 31t118.5 9h25q43 0 57 -14.5t15 -92.5v-19q151 84 275 115q40 10 101.5 10t123.5 -26.5t98 -76.5q64 -88 64 -280v-497h155q27 0 27 -54.5t-15 -70.5t-26 -16h-455q-26 0 -26 54.5t15 70.5t26 16 q104 0 104 43v297q0 194 -22 254.5t-56.5 86t-93.5 25.5q-111 0 -274 -129v-577h168q26 0 26 -54.5t-15 -70.5t-26 -16h-510q-26 0 -26 54.5t15 70.5t23 16h13q115 0 131 23q6 8 6 20v663h-176z" />
<glyph unicode="&#xf2;" horiz-adv-x="1093" d="M195 128.5q-115 148.5 -115 389t145 372t355 131.5h3q196 0 312.5 -145.5t116.5 -384.5t-136 -375t-351 -136t-330 148.5zM550 867q-178 1 -240 -179q-24 -70 -25 -172q0 -189 71 -285.5t195 -96.5t190 105t66 267q-1 271 -159 340q-48 21 -98 21zM244 1423q0 109 90 147 q24 11 40 11h19l273 -285q0 -43 -28 -75.5t-70 -32.5z" />
<glyph unicode="&#xf3;" horiz-adv-x="1093" d="M195 128.5q-115 148.5 -115 389t145 372t355 131.5h3q196 0 312.5 -145.5t116.5 -384.5t-136 -375t-351 -136t-330 148.5zM550 867q-178 1 -240 -179q-24 -70 -25 -172q0 -189 71 -285.5t195 -96.5t190 105t66 267q-1 271 -159 340q-48 21 -98 21zM579 1188 q-42 0 -70.5 32.5t-28.5 75.5l273 285h3q62 0 104 -43.5t42 -114.5z" />
<glyph unicode="&#xf4;" horiz-adv-x="1093" d="M332 1200q-34 0 -59 30t-25 70l256 177q47 28 77.5 28t72.5 -28l256 -177q0 -64 -51 -92q-15 -8 -33 -8l-246 117zM195 128.5q-115 148.5 -115 389t145 372t355 131.5h3q196 0 312.5 -145.5t116.5 -384.5t-136 -375t-351 -136t-330 148.5zM550 867q-178 1 -240 -179 q-24 -70 -25 -172q0 -189 71 -285.5t195 -96.5t190 105t66 267q-1 271 -159 340q-48 21 -98 21z" />
<glyph unicode="&#xf5;" horiz-adv-x="1093" d="M240 1217q-37 1 -65.5 28t-28.5 64q74 121 180 174q48 24 99 24t87.5 -22.5t72 -50t71 -50t69 -22.5t58 15.5t45.5 36.5t38.5 43t31.5 34q38 0 68 -28.5t30 -63.5q-54 -121 -168 -180q-48 -25 -97 -25q-72 0 -115.5 24t-67.5 42q-88 66 -136 66l-2 1q-77 -1 -144 -83 q-15 -18 -26 -27zM195 128.5q-115 148.5 -115 389t145 372t355 131.5h3q196 0 312.5 -145.5t116.5 -384.5t-136 -375t-351 -136t-330 148.5zM550 867q-178 1 -240 -179q-24 -70 -25 -172q0 -189 71 -285.5t195 -96.5t190 105t66 267q-1 271 -159 340q-48 21 -98 21z" />
<glyph unicode="&#xf6;" horiz-adv-x="1093" d="M195 128.5q-115 148.5 -115 389t145 372t355 131.5h3q196 0 312.5 -145.5t116.5 -384.5t-136 -375t-351 -136t-330 148.5zM550 867q-178 1 -240 -179q-24 -70 -25 -172q0 -189 71 -285.5t195 -96.5t190 105t66 267q-1 271 -159 340q-48 21 -98 21zM181 1329q0 92 79 127 q24 10 71 10t85 -40t38 -99t-39 -98t-100 -39t-97.5 39t-36.5 100zM769 1190q-92 0 -125 82q-10 25 -10 55q0 95 80 129q25 10 55 10q59 0 98 -39t39 -100q0 -94 -82 -127q-25 -10 -55 -10z" />
<glyph unicode="&#xf7;" horiz-adv-x="1065" d="M667 983q1 -147 -151 -147q-44 0 -82.5 37t-38.5 98t38 99q39 38 98 38t97.5 -38t38.5 -87zM395 324q0 59 38 99q39 40 98.5 40t97 -40t38.5 -99q0 -93 -82 -126q-25 -10 -70 -10t-82.5 38t-37.5 98zM71 651q8 74 40 74h843q32 0 39 -74q0 -47 -14.5 -63.5t-24.5 -16.5 h-842q-28 0 -38 52q-3 17 -3 28z" />
<glyph unicode="&#xf8;" horiz-adv-x="1095" d="M907 864q108 -143 108 -375t-145 -370.5t-354 -138.5q-126 0 -221 64l-62 -83q-19 -27 -111 -27q-82 0 -82 27l145 192q-102 146 -101.5 376t145.5 361.5t354 131.5q120 0 215 -58l59 78q22 28 93 24h26q64 0 64 -24zM790 707l-400 -536q58 -37 143 -37t133.5 29.5 t80.5 80.5q63 100 63 246t-20 217zM702 838q-56 33 -127 33t-117 -16.5t-83 -56.5q-87 -93 -87 -288q0 -128 16 -199z" />
<glyph unicode="&#xf9;" horiz-adv-x="1234" d="M834 96q-159 -116 -287 -116q-252 0 -324 202q-24 67 -24 156v509h-141q-37 0 -37 63t20 68q168 43 307 43q44 0 46 -80v-530q0 -195 100 -233q30 -12 74 -12q124 0 212 66l43 32v583h-137q-41 0 -40.5 60.5t26.5 70.5q42 17 173 35.5t151 -3.5q22 -18 22 -116v-753h168 q27 0 27 -67.5t-41 -73.5q-102 -16 -182 -16t-94 8q-30 17 -62 104zM293 1423q0 109 90 147q25 11 41 11h18l273 -285q-1 -43 -29 -75.5t-69 -32.5z" />
<glyph unicode="&#xfa;" horiz-adv-x="1234" d="M834 96q-159 -116 -287 -116q-252 0 -324 202q-24 67 -24 156v509h-141q-37 0 -37 63t20 68q168 43 307 43q44 0 46 -80v-530q0 -195 100 -233q30 -12 74 -12q124 0 212 66l43 32v583h-137q-41 0 -40.5 60.5t26.5 70.5q42 17 173 35.5t151 -3.5q22 -18 22 -116v-753h168 q27 0 27 -67.5t-41 -73.5q-102 -16 -182 -16t-94 8q-30 17 -62 104zM627 1188q-42 0 -70.5 32.5t-28.5 75.5l273 285h3q62 0 104 -43.5t42 -114.5z" />
<glyph unicode="&#xfb;" horiz-adv-x="1234" d="M351 1200q-55 0 -77 63q-6 18 -7 37l256 177q42 28 74.5 28t74.5 -28l256 -177q0 -64 -51 -92q-15 -8 -33 -8l-246 117zM834 96q-159 -116 -287 -116q-252 0 -324 202q-24 67 -24 156v509h-141q-37 0 -37 63t20 68q168 43 307 43q44 0 46 -80v-530q0 -195 100 -233 q30 -12 74 -12q124 0 212 66l43 32v583h-137q-41 0 -40.5 60.5t26.5 70.5q42 17 173 35.5t151 -3.5q22 -18 22 -116v-753h168q27 0 27 -67.5t-41 -73.5q-102 -16 -182 -16t-94 8q-30 17 -62 104z" />
<glyph unicode="&#xfc;" horiz-adv-x="1234" d="M834 96q-159 -116 -287 -116q-252 0 -324 202q-24 67 -24 156v509h-141q-37 0 -37 63t20 68q168 43 307 43q44 0 46 -80v-530q0 -195 100 -233q30 -12 74 -12q124 0 212 66l43 32v583h-137q-41 0 -40.5 60.5t26.5 70.5q42 17 173 35.5t151 -3.5q22 -18 22 -116v-753h168 q27 0 27 -67.5t-41 -73.5q-102 -16 -182 -16t-94 8q-30 17 -62 104zM227 1329q0 92 79 127q24 10 71 10t85 -40t38 -99t-39 -98t-100 -39t-97.5 39t-36.5 100zM815 1190q-92 0 -125 82q-10 25 -10 55q0 95 80 129q25 10 55 10q59 0 98 -39t39 -100q0 -94 -82 -127 q-25 -10 -55 -10z" />
<glyph unicode="&#xfd;" horiz-adv-x="1099" d="M172 -126q143 0 145 -160q32 0 55.5 36t41 77t30 77.5t21 64.5t11.5 37l-332 854h-112q-26 0 -26 54.5t14 70.5t25 16h434q25 0 25 -54t-15.5 -70.5t-25.5 -16.5q-88 0 -88 -43l203 -594l237 637h-131q-26 0 -26 55t13.5 70.5t22.5 15.5h375q25 0 25 -57q0 -84 -48 -84 q-39 0 -55.5 -9.5t-25.5 -33.5l-422 -1077q-32 -83 -104 -131.5t-177 -48.5q-140 0 -196 92q-20 34 -19.5 89t39 94t85.5 39h1zM656 1188q-42 0 -70.5 32.5t-28.5 75.5l273 285h3q62 0 104 -43.5t42 -114.5z" />
<glyph unicode="&#xfe;" horiz-adv-x="1093" d="M-36 1409q-36 1 -41 80q0 45 27 56q94 38 340 38q42 0 45 -85q1 -25 1 -52v-508q146 83 250 83q195 0 310 -138.5t115 -381.5t-133 -379t-342 -136q-82 0 -170 45q-20 10 -30 14v-342h222q27 0 27 -54.5t-15 -70.5t-26 -16h-565q-27 0 -27 54.5t15 70.5t26 16 q125 0 142 23q6 8 6 20v1663h-177zM336 195q69 -55 188 -55q190 0 256 182q26 72 26 180q0 190 -88 278q-66 67 -157 67t-171 -51q-30 -19 -54 -47v-554z" />
<glyph unicode="&#xff;" horiz-adv-x="1099" d="M172 -126q143 0 145 -160q32 0 55.5 36t41 77t30 77.5t21 64.5t11.5 37l-332 854h-112q-26 0 -26 54.5t14 70.5t25 16h434q25 0 25 -54t-15.5 -70.5t-25.5 -16.5q-88 0 -88 -43l203 -594l237 637h-131q-26 0 -26 55t13.5 70.5t22.5 15.5h375q25 0 25 -57q0 -84 -48 -84 q-39 0 -55.5 -9.5t-25.5 -33.5l-422 -1077q-32 -83 -104 -131.5t-177 -48.5q-140 0 -196 92q-20 34 -19.5 89t39 94t85.5 39h1zM230 1327q0 94 80 129q24 10 71 10t85 -40t37 -99q1 -59 -38 -98t-100 -39t-98 39t-37 98zM818 1190q-92 0 -125 82q-10 25 -10 55q0 95 80 129 q25 10 55 10q58 0 97 -39t40 -100q0 -94 -82 -127q-25 -10 -55 -10z" />
<glyph unicode="&#x152;" horiz-adv-x="2042" d="M1646 516q-72 0 -72 27v151h-319v-540h530l76 149q9 19 37 19q96 0 97 -41q0 -5 -1 -7l-92 -274h-992q-88 -20 -198 -20t-224 44t-200 137q-186 200 -186 578t185.5 582t486.5 204q89 0 171 -20h1008v-291q0 -34 -70.5 -34t-70.5 22q0 84 -22 108q-39 41 -142 41h-393 v-503h254q46 0 56.5 27t10.5 124q0 23 56 23t71 -14t15 -23v-428q0 -41 -72 -41zM1044 1253q-105 107 -291.5 107t-303.5 -148t-117 -389q0 -505 249 -636q80 -42 182 -42q192 0 281 76v1032z" />
<glyph unicode="&#x153;" horiz-adv-x="1769" d="M905 150q-132 -170 -390 -170q-205 0 -320 148.5t-115 389t145 372t358 131.5t333 -174q138 174 383 174h3q186 0 287 -116.5t101 -335.5q0 -47 -42.5 -80.5t-106.5 -33.5h-527q18 -234 163 -300q46 -21 97 -21t108 16.5t131 63t86.5 46.5t25.5 -12t32 -39t19.5 -53 t-10.5 -34q-183 -142 -412 -142t-349 170zM550 867q-178 1 -240 -179q-24 -70 -25 -172q0 -189 71 -285.5t195 -96.5t190 105t66 267q-1 271 -159 340q-48 21 -98 21zM1485 605q1 262 -195 262q-99 0 -184 -69t-92 -193h471z" />
<glyph unicode="&#x2000;" horiz-adv-x="995" />
<glyph unicode="&#x2001;" horiz-adv-x="1991" />
<glyph unicode="&#x2002;" horiz-adv-x="995" />
<glyph unicode="&#x2003;" horiz-adv-x="1991" />
<glyph unicode="&#x2004;" horiz-adv-x="663" />
<glyph unicode="&#x2005;" horiz-adv-x="497" />
<glyph unicode="&#x2006;" horiz-adv-x="331" />
<glyph unicode="&#x2007;" horiz-adv-x="331" />
<glyph unicode="&#x2008;" horiz-adv-x="248" />
<glyph unicode="&#x2009;" horiz-adv-x="398" />
<glyph unicode="&#x200a;" horiz-adv-x="110" />
<glyph unicode="&#x2010;" horiz-adv-x="750" d="M153 689h447q26 0 36 -59q2 -14 2 -26q0 -52 -14.5 -71.5t-24.5 -19.5h-447q-28 0 -38 61q-2 14 -2 34t11 50.5t30 30.5z" />
<glyph unicode="&#x2011;" horiz-adv-x="750" d="M153 689h447q26 0 36 -59q2 -14 2 -26q0 -52 -14.5 -71.5t-24.5 -19.5h-447q-28 0 -38 61q-2 14 -2 34t11 50.5t30 30.5z" />
<glyph unicode="&#x2012;" horiz-adv-x="750" d="M153 689h447q26 0 36 -59q2 -14 2 -26q0 -52 -14.5 -71.5t-24.5 -19.5h-447q-28 0 -38 61q-2 14 -2 34t11 50.5t30 30.5z" />
<glyph unicode="&#x2013;" horiz-adv-x="1103" d="M113 615q8 74 40 74h798q27 0 37 -50q2 -13 2 -24q0 -45 -14.5 -62.5t-24.5 -17.5h-797q-28 0 -38 52q-3 17 -3 28z" />
<glyph unicode="&#x2014;" horiz-adv-x="1979" d="M113 614q8 75 41 75h1673q27 0 37 -51q2 -13 2 -24q0 -48 -14.5 -63.5t-24.5 -15.5h-1673q-28 0 -38 51q-3 17 -3 28z" />
<glyph unicode="&#x2018;" horiz-adv-x="443" d="M285 1329q74 -39 74 -129q-1 -60 -42.5 -100t-85.5 -40h-1q-73 0 -118.5 41t-45.5 99q0 176 265 383q29 0 44.5 -16t15.5 -43q-106 -119 -106 -195z" />
<glyph unicode="&#x2019;" horiz-adv-x="447" d="M186 1315q-74 39 -74 129q0 60 41.5 100t86.5 40h1q72 0 117.5 -41t46.5 -99q0 -176 -265 -383q-29 0 -44.5 16t-15.5 43q106 119 106 195z" />
<glyph unicode="&#x201a;" horiz-adv-x="505" d="M180 -16q-74 39 -74 129q0 59 42 99t102 40t104 -40t45 -99q0 -176 -265 -383q-29 0 -44.5 16t-15.5 43q106 119 106 195z" />
<glyph unicode="&#x201c;" horiz-adv-x="842" d="M285 1329q74 -39 74 -129q-1 -60 -42.5 -100t-85.5 -40h-1q-73 0 -118.5 41t-45.5 99q0 176 265 383q29 0 44.5 -16t15.5 -43q-106 -119 -106 -195zM684 1329q74 -39 74 -129q0 -60 -41.5 -100t-86.5 -40h-1q-72 0 -117.5 41t-46.5 99q0 176 265 383q29 0 44.5 -16 t15.5 -43q-106 -119 -106 -195z" />
<glyph unicode="&#x201d;" horiz-adv-x="845" d="M585 1315q-74 39 -74 129q1 60 42.5 100t85.5 40h1q73 0 118.5 -41t45.5 -99q0 -176 -265 -383q-29 0 -44.5 16t-15.5 43q106 119 106 195zM186 1315q-74 39 -74 129q0 60 41.5 100t86.5 40h1q72 0 117.5 -41t46.5 -99q0 -176 -265 -383q-29 0 -44.5 16t-15.5 43 q106 119 106 195z" />
<glyph unicode="&#x201e;" horiz-adv-x="904" d="M579 -16q-74 39 -74 129q1 59 43 99t101.5 40t104 -40t44.5 -99q0 -176 -265 -383q-29 0 -44.5 16t-15.5 43q106 119 106 195zM180 -16q-74 39 -74 129q0 59 42 99t102 40t104 -40t45 -99q0 -176 -265 -383q-29 0 -44.5 16t-15.5 43q106 119 106 195z" />
<glyph unicode="&#x2022;" horiz-adv-x="713" d="M173 587q-73 73 -73 184t72.5 185t182 74t184.5 -74t75 -185t-75.5 -184t-184 -73t-181.5 73z" />
<glyph unicode="&#x202f;" horiz-adv-x="398" />
<glyph unicode="&#x2039;" horiz-adv-x="686" d="M83 429q-40 33 -40 87t40 86l421 333q31 -1 60 -31t29 -64l-306 -305l306 -351q0 -34 -28 -64t-60 -30z" />
<glyph unicode="&#x203a;" horiz-adv-x="686" d="M602 595q41 -33 41 -85t-42 -87l-420 -333q-30 0 -59 30t-29 65l305 305l-305 351q1 34 27 64t60 30z" />
<glyph unicode="&#x205f;" horiz-adv-x="497" />
<glyph unicode="&#x20ac;" d="M116 846q-34 0 -41 76q0 46 15 62t26 16h103q80 525 516 525q157 0 290 -80.5t134 -203.5q-1 -64 -44.5 -109t-108.5 -45t-109.5 44.5t-44.5 105t22 98.5q-59 36 -159.5 36t-168.5 -94.5t-96 -276.5h307q27 0 37 -51q2 -13 2 -29t-10 -45t-29 -29h-321q-2 -22 -2 -44v-86 h278q34 0 38 -74q1 -23 -8 -52q-10 -28 -30 -28h-268q35 -300 186 -387q52 -30 104 -30q132 0 250 67q34 19 51.5 19t41 -32t23.5 -58.5t-18 -42.5q-132 -118 -353.5 -118t-364.5 181q-118 152 -152 401h-144q-28 0 -38 52q-3 17 -3 28q7 74 41 74h133v18q0 58 3 112h-88z " />
<glyph unicode="&#xe000;" horiz-adv-x="1000" d="M0 1000h1000v-1000h-1000v1000z" />
</font>
</defs>
</svg>
