<?xml version="1.0" standalone="no"?>
<!DOCTYPE svg PUBLIC "-//W3C//DTD SVG 1.1//EN" "http://www.w3.org/Graphics/SVG/1.1/DTD/svg11.dtd" >
<svg xmlns="http://www.w3.org/2000/svg">
<metadata>
This is a custom SVG webfont generated by Font Squirrel.
Copyright   : Typeface  FontSite Inc 19962008 All Rights Reserved wwwfontsitecom
Designer    : FontSitecom
Foundry URL : httpwwwfontsitecom
</metadata>
<defs>
<font id="CartoGothicStdBook" horiz-adv-x="1099" >
<font-face units-per-em="2048" ascent="1552" descent="-496" />
<missing-glyph horiz-adv-x="512" />
<glyph unicode="ft" horiz-adv-x="1431" d="M242 0v856h-236v145h236v43q0 211 53 299q80 137 270 138q63 0 135 -17v-153q-66 12 -94 12q-129 0 -162 -102q-16 -59 -16 -174v-46h475v226l187 63v-289h266v-145h-266v-397q0 -147 10 -197q10 -55 51 -86t102.5 -31t120.5 31v-160q-90 -29 -170 -28q-193 0 -262 131 q-39 76 -39 284v453h-475v-856h-186z" />
<glyph unicode="&#xfb00;" horiz-adv-x="1382" d="M242 0v856h-236v145h236v43q0 211 53 299q80 137 270 138q63 0 135 -17v-153q-66 12 -94 12q-129 0 -162 -102q-16 -59 -16 -174v-46h475v43q0 211 53 299q80 137 271 138q61 0 133 -17v-153q-61 12 -94 12q-127 0 -160 -102q-16 -59 -16 -174v-46h270v-145h-270v-856 h-187v856h-475v-856h-186z" />
<glyph unicode="&#xfb01;" horiz-adv-x="1234" d="M242 0v856h-236v145h236v43q0 211 53 299q80 137 270 138q63 0 135 -17v-153q-66 12 -94 12q-129 0 -162 -102q-16 -59 -16 -174v-46h272v-145h-272v-856h-186zM895 1241v205h203v-205h-203zM907 0v1001h187v-1001h-187z" />
<glyph unicode="&#xfb02;" horiz-adv-x="1234" d="M242 0v856h-236v145h236v43q0 211 53 299q80 137 270 138q63 0 135 -17v-153q-66 12 -94 12q-129 0 -162 -102q-16 -59 -16 -174v-46h272v-145h-272v-856h-186zM907 0v1475h187v-1475h-187z" />
<glyph unicode="&#xfb03;" horiz-adv-x="1943" d="M242 0v856h-236v145h236v43q0 211 53 299q80 137 270 138q63 0 135 -17v-153q-66 12 -94 12q-129 0 -162 -102q-16 -59 -16 -174v-46h471v41q0 207 55 301q82 137 273 138q66 0 137 -17l-12 -153q-51 10 -92 10q-123 0 -156 -102q-16 -59 -17 -172v-46h269v-145h-266 v-856h-187v856h-475v-856h-186zM1552 1241v205h203v-205h-203zM1563 0v1001h186v-1001h-186z" />
<glyph unicode="&#xfb04;" horiz-adv-x="1939" d="M242 0v856h-236v145h236v43q0 211 53 299q80 137 270 138q63 0 135 -17v-153q-66 12 -94 12q-129 0 -162 -102q-16 -59 -16 -174v-46h471v41q0 209 55 301q82 137 273 138q70 0 137 -17l-12 -153q-51 10 -92 10q-123 0 -156 -102q-16 -59 -17 -172v-46h269v-145h-266 v-856h-187v856h-475v-856h-186zM1563 0v1475h186v-1475h-186z" />
<glyph unicode=" "  horiz-adv-x="512" />
<glyph unicode="&#x09;" horiz-adv-x="512" />
<glyph unicode="&#xa0;" horiz-adv-x="512" />
<glyph unicode="!" horiz-adv-x="800" d="M365 379l-33 987h225l-25 -987h-167zM344 0v211h213v-211h-213z" />
<glyph unicode="&#x22;" horiz-adv-x="665" d="M408 928l-33 547h205l-33 -547h-139zM117 928l-31 547h203l-31 -547h-141z" />
<glyph unicode="#" d="M160 0l65 414h-182l20 131h177l47 301h-176l22 131h182l62 389h153l-61 -383h264l62 383h153l-61 -389h178l-21 -131h-180l-47 -301h182l-20 -131h-182l-66 -414h-153l65 414h-264l-66 -414h-153zM399 545h265l49 301h-267z" />
<glyph unicode="$" d="M117 49l14 199q162 -82 340 -86v477q-121 33 -229 106q-145 98 -146 265q0 156 100.5 253t282.5 113v172h105v-170q61 2 168.5 -16.5t162.5 -40.5l-18 -184q-141 70 -313 82v-418l59 -21q129 -43 219 -110q133 -102 133 -275q0 -166 -112.5 -275.5t-307.5 -129.5v-172 h-104v170q-151 4 -354 61zM379 887q33 -20 100 -49v372q-88 -18 -136 -65t-48 -115q0 -86 84 -143zM575 166q84 10 136 49q86 70 86 164q0 143 -222 221v-434z" />
<glyph unicode="%" horiz-adv-x="1665" d="M332 -84l868 1534h129l-868 -1534h-129zM373 680q-152 0 -239 95t-87 261t86 259.5t240 93.5q156 0 238.5 -92.5t82.5 -262.5q0 -162 -88 -258t-233 -96zM371 797q80 0 125 62.5t45 172.5q0 115 -44 178.5t-122 63.5q-82 0 -128 -64.5t-46 -179.5q0 -109 45 -171t125 -62 zM969 334q0 166 86 259t239 93q156 0 239 -92t83 -262q0 -162 -88 -258.5t-236 -96.5q-152 0 -237.5 95.5t-85.5 261.5zM1122 330q0 -111 45 -173.5t125 -62.5t125 62.5t45 173.5q0 115 -44 178t-122 63q-82 0 -128 -63t-46 -178z" />
<glyph unicode="&#x26;" horiz-adv-x="1425" d="M162 381q0 180 151 297q53 39 162 84q-68 57 -110.5 145t-42.5 166q0 133 99 219t255 86q154 0 249 -80.5t95 -210.5q0 -215 -289 -356l270 -328q78 137 86 338h183q-12 -297 -152 -469l232 -272h-240l-109 129q-88 -84 -173 -120t-199 -36q-203 0 -335 115t-132 293z M631 840q111 63 159 119.5t48 119.5q0 61 -46.5 101.5t-116 40.5t-116.5 -44t-47 -108q0 -82 119 -229zM369 383q0 -104 75.5 -176t186.5 -72q137 0 262 127l-320 383q-86 -49 -110 -72q-94 -75 -94 -190z" />
<glyph unicode="'" horiz-adv-x="374" d="M117 928l-31 547h203l-31 -547h-141z" />
<glyph unicode="(" horiz-adv-x="724" d="M127 535q0 293 137 606q55 129 180 334h174q-289 -530 -288 -940q0 -412 297 -953h-176q-324 500 -324 953z" />
<glyph unicode=")" horiz-adv-x="724" d="M106 -418q289 530 289 940q0 412 -297 953h176q324 -500 324 -953q0 -293 -137 -606q-55 -129 -180 -334h-175z" />
<glyph unicode="*" d="M391 750l-117 84l177 231l-283 82l43 137l276 -102l-10 293h146l-13 -293l279 102l45 -137l-281 -82l183 -229l-119 -88l-164 243z" />
<glyph unicode="+" d="M475 240v383h-395v149h395v381h150v-381h397v-149h-397v-383h-150z" />
<glyph unicode="," horiz-adv-x="546" d="M43 -264l123 483h219l-170 -483h-172z" />
<glyph unicode="-" horiz-adv-x="514" d="M0 428v154h514v-154h-514z" />
<glyph unicode="." horiz-adv-x="546" d="M164 0v219h219v-219h-219z" />
<glyph unicode="/" horiz-adv-x="890" d="M-59 -418l692 1893h158l-687 -1893h-163z" />
<glyph unicode="0" d="M158 244q-72 174 -72 446q0 270 72 438q115 260 399 261q121 0 222.5 -66t152.5 -174q82 -176 82 -479q0 -276 -80 -451q-51 -113 -154.5 -179.5t-230.5 -66.5q-133 0 -236.5 72t-154.5 199zM367 250q68 -117 184 -117q264 0 264 549q0 258 -68.5 402.5t-189.5 144.5 q-176 0 -235 -223q-37 -141 -37 -322q0 -287 82 -434z" />
<glyph unicode="1" d="M535 0v1153q-12 -16 -31 -33l-45 -43l-137 -119l-109 129l334 279h182v-1366h-194z" />
<glyph unicode="2" d="M109 0v207q330 285 480 474t150 323q0 96 -75.5 157.5t-192.5 61.5q-147 0 -309 -99l-21 179q199 80 361 79q201 0 324.5 -103t123.5 -271q0 -129 -79.5 -262.5t-274.5 -331.5q-162 -162 -297 -260q47 8 145 8h535v-162h-870z" />
<glyph unicode="3" d="M109 37l8 180q184 -76 334 -76q133 0 218 67.5t85 172.5q0 172 -199 227q-70 20 -201 21q-33 0 -63 -2v166q133 0 223 16q236 47 236 213q0 90 -77 146.5t-198 56.5q-150 0 -311 -68l-12 168q164 59 333 59q207 0 320 -79q143 -102 143 -281q0 -127 -91 -214t-236 -99 q154 -8 249 -103.5t95 -242.5q0 -174 -136.5 -278.5t-365.5 -104.5q-176 0 -354 55z" />
<glyph unicode="4" d="M43 299v162l553 905h281v-905h180v-162h-180v-299h-195v299h-639zM238 461h45h399v543q0 90 23 296q-33 -100 -132 -277t-335 -562z" />
<glyph unicode="5" d="M170 33l6 180q154 -68 279 -68q143 0 233 77t90 200q0 125 -93 200.5t-247 75.5q-117 0 -258 -47l10 715h756v-162h-575l-4 -262q0 -25 -7 -104q70 20 154 20q213 0 344 -117.5t131 -308.5q0 -203 -145.5 -324.5t-386.5 -121.5q-137 0 -287 47z" />
<glyph unicode="6" d="M569 -25q-225 0 -344 170t-119 494q0 367 141.5 558.5t411.5 191.5q135 0 283 -46l-24 -174q-125 59 -250 60q-92 0 -171 -47t-126 -129q-33 -55 -54.5 -142.5t-21.5 -160.5v-33q41 70 125 110.5t184 40.5q178 0 293 -122.5t115 -313.5q0 -201 -124 -329t-319 -128z M317 434q0 -127 72 -213t178.5 -86t176 81t69.5 206q0 123 -69.5 205t-176.5 82q-109 0 -179.5 -77t-70.5 -198z" />
<glyph unicode="7" d="M248 0l411 938q80 176 129 268l-12 -2h-39h-63h-570v162h873v-162l-512 -1204h-217z" />
<glyph unicode="8" d="M78 360q0 258 299 365q-119 25 -193.5 115t-74.5 207q0 156 119.5 249t320.5 93q190 0 309 -92.5t119 -241.5q0 -102 -66.5 -186.5t-187.5 -135.5q145 -47 222 -142t77 -226q0 -174 -128 -282t-335 -108q-213 0 -347 107.5t-134 277.5zM590 793q45 29 67 49 q121 98 121 211q0 78 -68.5 132t-167 54t-167 -53t-68.5 -131q0 -143 283 -262zM289 375q0 -104 77.5 -172t198.5 -68q113 0 185.5 60.5t72.5 156.5q0 129 -145 219q-53 35 -162 74q-227 -110 -227 -270z" />
<glyph unicode="9" d="M150 23l24 174q127 -59 248 -60q215 0 317 219q47 109 60 289q-111 -147 -307 -147q-182 0 -297 123.5t-115 318.5q0 199 123 326t313 127q227 0 347 -167t120 -485q0 -377 -142.5 -570.5t-418.5 -193.5q-127 1 -272 46zM526.5 657q106.5 0 176 78t69.5 197 q0 125 -70.5 213t-173.5 88q-109 0 -179 -80t-70 -205q0 -127 70.5 -209t177 -82z" />
<glyph unicode=":" horiz-adv-x="546" d="M164 782v219h219v-219h-219zM164 0v219h219v-219h-219z" />
<glyph unicode=";" horiz-adv-x="546" d="M145 782v219h220v-219h-220zM41 -264l123 483h219l-168 -483h-174z" />
<glyph unicode="&#x3c;" horiz-adv-x="1024" d="M68 612v158l886 428v-184l-690 -322l690 -323v-183z" />
<glyph unicode="=" d="M80 766v149h942v-149h-942zM80 479v150h942v-150h-942z" />
<glyph unicode="&#x3e;" horiz-adv-x="1024" d="M70 186v183l690 323l-690 322v182l886 -426v-158z" />
<glyph unicode="?" horiz-adv-x="1042" d="M463 381q0 139 30.5 206.5t151.5 205.5q102 111 103 221q0 90 -66 145t-174 55q-143 0 -295 -75l-14 190q176 59 331 60q186 0 303 -98.5t117 -254.5q0 -88 -40 -166.5t-150 -207.5q-78 -90 -99.5 -138.5t-21.5 -142.5h-176zM449 0v213h208v-213h-208z" />
<glyph unicode="@" horiz-adv-x="1562" d="M307 168q-98 96 -153.5 231.5t-55.5 278.5q0 301 208 508t509 207q281 0 465 -173t184 -434q0 -193 -102 -338t-236 -145q-59 0 -100 35t-51 94q-92 -141 -256 -141q-125 0 -206 93t-81 237q0 170 105.5 291.5t253.5 121.5q158 0 217 -137l22 115h131l-82 -420 q-12 -63 -12 -96q0 -37 18.5 -60.5t47.5 -23.5q82 0 148.5 114.5t66.5 257.5q0 213 -148.5 351.5t-378.5 138.5q-250 0 -422 -173t-172 -425t162 -418q158 -166 434 -166q229 0 420 86l33 -119q-203 -86 -447 -86q-321 0 -522 195zM580 623q0 -88 48 -143.5t124 -55.5 q88 0 151.5 84t63.5 203q0 84 -44 134t-118 50q-90 0 -157.5 -80.5t-67.5 -191.5z" />
<glyph unicode="A" horiz-adv-x="1398" d="M10 0l582 1366h205l592 -1366h-220l-143 346h-664l-141 -346h-211zM424 512h534l-157 381q-94 223 -111 305q-25 -82 -115 -309z" />
<glyph unicode="B" horiz-adv-x="1185" d="M176 0v1366h324q156 0 227.5 -12.5t132.5 -46.5q172 -100 172 -291q0 -166 -125 -254q-59 -43 -166 -68q129 -18 197 -63q135 -92 135 -264q0 -100 -49 -182.5t-137 -129.5q-100 -55 -322 -55h-389zM371 784h139q139 0 198.5 22.5t94.5 73t35 111.5q0 68 -40 118t-112 73 q-61 18 -215 18h-100v-416zM371 166h151q160 0 228 33q123 57 122 186q0 76 -46 134.5t-126 84.5q-63 20 -227 21h-102v-459z" />
<glyph unicode="C" horiz-adv-x="1189" d="M354 133q-256 197 -256 557q0 303 200 494.5t517 191.5q180 0 311 -61l-16 -185q-141 80 -285 80q-229 0 -373.5 -144t-144.5 -372q0 -229 149.5 -379.5t377.5 -150.5q137 0 292 61l15 -188q-141 -47 -303 -47q-300 0 -484 143z" />
<glyph unicode="D" horiz-adv-x="1411" d="M176 0v1366h283q242 0 364 -33q219 -59 355.5 -239.5t136.5 -415.5q0 -223 -123 -393t-336 -240q-141 -45 -367 -45h-313zM371 166h102q227 0 344 49q135 59 212 183t77 286q0 164 -89 297t-235 184q-102 35 -307 35h-104v-1034z" />
<glyph unicode="E" horiz-adv-x="1079" d="M176 0v1366h760v-166h-565v-403h524v-166h-524v-465h581v-166h-776z" />
<glyph unicode="F" horiz-adv-x="987" d="M176 0v1366h725v-166h-530v-409h510v-166h-510v-625h-195z" />
<glyph unicode="G" horiz-adv-x="1406" d="M98 694q0 311 203 496.5t543 185.5q205 0 375 -67l-15 -187q-158 88 -348 88q-242 0 -395.5 -144t-153.5 -374q0 -242 153.5 -389t403.5 -147q86 0 185 30v396h-293v166h487v-695q-188 -63 -393 -63q-346 0 -549 190t-203 514z" />
<glyph unicode="H" horiz-adv-x="1402" d="M176 0v1366h195v-573h661v573h195v-1366h-195v627h-661v-627h-195z" />
<glyph unicode="I" horiz-adv-x="573" d="M190 0v1366h195v-1366h-195z" />
<glyph unicode="J" horiz-adv-x="753" d="M39 6v170q72 -29 143 -29q137 0 183 121q20 49 20 217v881h195v-930q0 -145 -7.5 -191t-35.5 -100q-92 -164 -326 -163q-59 -1 -172 24z" />
<glyph unicode="K" horiz-adv-x="1290" d="M176 0v1366h195v-457q0 -117 -4 -164l112 125l477 496h263l-644 -647l699 -719h-283l-497 530q-12 12 -125 146q2 -55 2 -139v-537h-195z" />
<glyph unicode="L" horiz-adv-x="983" d="M176 0v1366h195v-1200h577v-166h-772z" />
<glyph unicode="M" horiz-adv-x="1853" d="M176 0v1366h322l268 -686l119 -309q33 -102 43 -150q31 115 164 463l260 682h325v-1366h-194v780q0 66 3 238t3 229v29q-10 -31 -12 -35l-33 -106q-18 -57 -90 -254l-41 -117q-6 -18 -14 -37l-14 -37q-7 -18 -11 -26l-256 -664h-189l-258 664q-145 379 -209 575l-12 37 v-31q10 -113 12 -186q0 -27 5 -158q4 -123 4 -135v-766h-195z" />
<glyph unicode="N" horiz-adv-x="1443" d="M176 0v1366h266l465 -805q137 -240 187 -391q-20 199 -21 539v657h195v-1366h-252l-432 741q-186 319 -230 469q16 -186 17 -514v-696h-195z" />
<glyph unicode="O" horiz-adv-x="1517" d="M281 166q-84 92 -133.5 230.5t-49.5 283.5q0 156 51.5 298t141.5 239q166 176 477 176q297 0 474 -193.5t177 -517.5q0 -305 -164 -504q-170 -205 -493 -205q-307 0 -481 193zM307 684q0 -246 127 -401.5t325.5 -155.5t324.5 154.5t126 396.5q0 248 -123.5 404.5 t-320.5 156.5q-209 0 -334 -150.5t-125 -404.5z" />
<glyph unicode="P" horiz-adv-x="1087" d="M178 0v1366h271q244 0 346 -37q115 -41 181 -140t66 -231q0 -129 -64.5 -227t-178.5 -143q-100 -41 -318 -41h-108v-547h-195zM373 713h106q170 0 240 39q115 66 115 206q0 82 -46.5 140.5t-130.5 83.5q-66 18 -202 18h-82v-487z" />
<glyph unicode="Q" horiz-adv-x="1517" d="M98 682q0 324 180.5 517.5t481.5 193.5q332 0 504 -219q156 -193 155 -496q0 -229 -94 -397t-268 -250l327 -295h-256l-260 244q-74 -6 -104 -7q-303 0 -484.5 193.5t-181.5 515.5zM307 690q0 -250 126 -406.5t325 -156.5q201 0 326.5 153.5t125.5 397.5 q0 248 -123.5 404.5t-320.5 156.5q-207 0 -333 -150.5t-126 -398.5z" />
<glyph unicode="R" horiz-adv-x="1193" d="M176 0v1366h330q205 0 307 -35q104 -35 165.5 -123t61.5 -202q0 -156 -112 -250q-63 -51 -178 -72q61 -27 96 -65.5t74 -120.5l231 -498h-225l-176 410q-55 127 -102.5 162.5t-164.5 35.5h-112v-608h-195zM371 776h121q145 0 213 25q135 49 135 188q0 66 -35 117t-96 72 q-59 23 -197 22h-141v-424z" />
<glyph unicode="S" horiz-adv-x="970" d="M111 29l20 182q150 -72 268 -72q127 0 204 63.5t77 168.5q0 76 -50 132t-161 107l-76 35q-162 74 -233.5 161t-71.5 214q0 168 119 270.5t311 102.5q152 0 299 -50l-24 -172q-147 55 -256 55.5t-177.5 -52t-68.5 -136.5q0 -70 47 -120t174 -113l74 -37 q172 -86 237.5 -169t65.5 -214q0 -184 -128 -298t-337 -114q-170 1 -313 56z" />
<glyph unicode="T" horiz-adv-x="1083" d="M449 0v1200h-437v166h1059v-166h-428v-1200h-194z" />
<glyph unicode="U" horiz-adv-x="1409" d="M229 254q-53 119 -53 369v743h195v-715q0 -248 49 -346q39 -78 116.5 -122t176.5 -44q225 0 297 207q29 80 28 295v725h195v-770q0 -156 -17.5 -244t-64.5 -159q-137 -219 -444 -220q-170 0 -295.5 73t-182.5 208z" />
<glyph unicode="V" horiz-adv-x="1296" d="M532 0l-522 1366h215l334 -901q66 -184 96 -305q29 131 93 305l333 901h205l-516 -1366h-238z" />
<glyph unicode="W" horiz-adv-x="1953" d="M430 0l-420 1366h213l236 -799q74 -256 96 -377q10 74 86 383l197 793h280l209 -799q29 -113 49.5 -200.5t32.5 -130.5l12 -46q27 158 90 377l234 799h201l-410 -1366h-248l-237 897q-45 168 -76 311q-53 -250 -68 -311l-225 -897h-252z" />
<glyph unicode="X" horiz-adv-x="1300" d="M12 0l504 717l-465 649h236l362 -516l361 516h225l-459 -649l512 -717h-248l-405 584l-389 -584h-234z" />
<glyph unicode="Y" horiz-adv-x="1288" d="M551 0v573l-541 793h242l338 -512q45 -66 59 -102q16 37 56 96l342 518h231l-533 -786v-580h-194z" />
<glyph unicode="Z" horiz-adv-x="1093" d="M61 0v166l555 805q123 180 175 233q-100 -4 -191 -4h-514v166h915v-180l-585 -842q-8 -12 -25.5 -35.5t-19.5 -27.5q-25 -33 -37 -52q-27 -33 -27 -34q-2 -2 -22 -35q49 6 151 6h578v-166h-953z" />
<glyph unicode="[" horiz-adv-x="727" d="M195 -418v1893h380v-134h-204v-1628h204v-131h-380z" />
<glyph unicode="\" horiz-adv-x="890" d="M786 -418l-686 1893h158l692 -1893h-164z" />
<glyph unicode="]" horiz-adv-x="727" d="M152 -285h204v1628h-204v132h380v-1893h-380v133z" />
<glyph unicode="^" horiz-adv-x="1024" d="M39 729l352 641h242l352 -641h-197l-276 496l-276 -496h-197z" />
<glyph unicode="_" horiz-adv-x="1024" d="M0 -121h1024v-168h-1024v168z" />
<glyph unicode="`" horiz-adv-x="1024" d="M496 1169l-242 281h205l168 -281h-131z" />
<glyph unicode="a" horiz-adv-x="1083" d="M88 287q0 158 136 243.5t388 85.5q43 0 140 -6q-2 252 -250 252q-150 0 -295 -98l-10 164q160 92 335 92q270 0 359 -184q41 -84 41 -287v-209q0 -211 10 -340h-170q-2 39 -2 80q0 31 2 92q-111 -186 -336 -186q-158 0 -253 82t-95 219zM285 289q0 -70 54 -113t138 -43 q82 0 148.5 39t99.5 107q31 63 31 194q-51 6 -101 6q-370 0 -370 -190z" />
<glyph unicode="b" horiz-adv-x="1181" d="M145 0v1475h187v-529q0 -47 -2 -82q0 -2 -1 -7t-2 -13t-1 -15q37 86 132 138.5t214 52.5q195 0 312.5 -139.5t117.5 -370.5q0 -238 -118 -381t-316 -143q-115 0 -206 49t-138 137v-172h-179zM336 500q0 -152 83 -254.5t208 -102.5q121 0 199.5 101.5t78.5 257.5 q0 158 -75.5 259t-194.5 101q-131 0 -215 -102t-84 -260z" />
<glyph unicode="c" horiz-adv-x="874" d="M80 500q0 213 123 350q70 76 170 120t209 44q123 0 227 -41l-12 -164q-80 47 -183 47q-150 0 -244 -98.5t-94 -249.5q0 -162 93.5 -262.5t240.5 -100.5q106 0 209 64l15 -170q-104 -51 -246 -51q-229 0 -368.5 140.5t-139.5 371.5z" />
<glyph unicode="d" horiz-adv-x="1187" d="M80 498q0 231 122 376.5t316 145.5q209 0 332 -174l-4 88q0 10 -1 26.5t-1 22.5v492h186v-1008q0 -215 14 -467h-180v168q-127 -182 -346 -182q-201 0 -319.5 138t-118.5 374zM276 498q0 -158 78 -256.5t203 -98.5t208 101.5t83 255.5q0 152 -82 257t-201 105 q-127 0 -208 -101t-81 -263z" />
<glyph unicode="e" horiz-adv-x="1069" d="M80 510q0 233 130 375.5t343 142.5q207 0 321.5 -142.5t114.5 -400.5q0 -18 -2 -32h-721q18 -150 108.5 -236t227.5 -86q156 0 311 94v-178q-162 -74 -321 -74q-236 0 -374 145.5t-138 391.5zM268 598h535q-16 121 -51 172q-72 111 -205 111q-111 0 -186 -77t-93 -206z " />
<glyph unicode="f" horiz-adv-x="722" d="M242 0v856h-236v145h236v43q0 211 53 299q80 137 270 138q63 0 135 -17v-153q-66 12 -94 12q-129 0 -162 -102q-16 -59 -16 -174v-46h272v-145h-272v-856h-186z" />
<glyph unicode="g" horiz-adv-x="1159" d="M178 -182q186 -92 357 -92q213 0 282 151q33 68 35 205q0 51 2 84q-115 -168 -334 -168q-199 0 -319.5 137t-120.5 361q0 233 121 377.5t315 144.5q117 0 207 -50t131 -139q2 12 2 23q-2 18 -2 59v93h174v-830q0 -248 -33 -348q-39 -125 -157.5 -191.5t-298.5 -66.5 q-186 0 -379 70zM276 498q0 -150 78 -246t199 -96q127 0 210 98t83 252q0 147 -82 250.5t-201 103.5q-127 0 -207 -100t-80 -262z" />
<glyph unicode="h" horiz-adv-x="1161" d="M143 0v1475h187v-478q0 -109 -6 -157q106 180 333 180q254 0 338 -215q37 -96 37 -279v-526h-186v434q0 197 -19 262q-43 166 -209 166q-92 0 -164.5 -55t-101.5 -150q-23 -70 -22 -260v-397h-187z" />
<glyph unicode="i" horiz-adv-x="468" d="M129 1241v205h203v-205h-203zM141 0v1001h187v-1001h-187z" />
<glyph unicode="j" horiz-adv-x="507" d="M166 1241v205h203v-205h-203zM174 20v981h186v-981q0 -131 -4 -175t-20 -95q-27 -82 -97.5 -129t-166.5 -47q-39 0 -109 10v154q37 -4 49 -4q113 0 146 88q12 31 14 58t2 140z" />
<glyph unicode="k" horiz-adv-x="1060" d="M143 0v1475h187v-707q0 -55 -1 -94t-2 -52.5t-2 -22.5t-1 -15q33 41 86 92l325 325h250l-467 -442l531 -559h-263l-340 369q-14 16 -53 66t-69 81q6 -49 6 -151v-365h-187z" />
<glyph unicode="l" horiz-adv-x="468" d="M141 0v1475h187v-1475h-187z" />
<glyph unicode="m" horiz-adv-x="1728" d="M154 0v565q0 190 -13 436h172l11 -161q39 84 122.5 132t192.5 48q227 0 295 -201q100 201 330 201q115 0 195.5 -56.5t113.5 -160.5q27 -86 26 -277v-526h-186v492q0 174 -16 231q-39 139 -172 139q-82 0 -146.5 -57t-89.5 -150q-18 -66 -18 -231v-424h-187v514 q0 164 -14 211q-39 137 -166 137q-76 0 -140.5 -49t-94.5 -131q-29 -76 -29 -240v-442h-186z" />
<glyph unicode="n" horiz-adv-x="1169" d="M154 0v496q0 256 -13 505h174l9 -157q119 176 344 176q131 0 221 -63.5t125 -180.5q27 -82 26 -309v-467h-186v451q0 188 -16 247q-45 164 -211 164q-92 0 -164 -56t-101 -151q-23 -78 -22 -288v-367h-186z" />
<glyph unicode="o" horiz-adv-x="1185" d="M80 498q0 229 144.5 379.5t365.5 150.5q229 0 372.5 -149.5t143.5 -386.5q0 -225 -145.5 -372t-370.5 -147q-219 0 -364.5 150t-145.5 375zM276 500q0 -168 89.5 -273.5t228.5 -105.5q137 0 226 105.5t89 265.5q0 172 -88 280.5t-227 108.5t-228.5 -107.5t-89.5 -273.5z " />
<glyph unicode="p" horiz-adv-x="1189" d="M340 -10v-408h-186v981q0 227 -13 438h176l13 -176q117 195 348 195q193 0 311.5 -139.5t118.5 -366.5q0 -238 -120 -383t-314 -145q-238 0 -344 196l2 -32q8 -115 8 -160zM340 500q0 -152 84 -254.5t209 -102.5q119 0 198.5 102.5t79.5 256.5q0 160 -74.5 260 t-195.5 100q-131 0 -216 -102t-85 -260z" />
<glyph unicode="q" horiz-adv-x="1183" d="M78 496q0 238 122 381t320 143q119 0 209 -54.5t135 -152.5q-6 29 -6 64q0 53 -4 106q0 8 2 18h180v-1419h-186v434q0 104 10 158q-113 -188 -346 -188q-201 0 -318.5 138.5t-117.5 371.5zM274 499.5q0 -157.5 79 -257t204 -99.5t208 101.5t83 255t-81 258t-200 104.5 q-129 0 -211 -102.5t-82 -260z" />
<glyph unicode="r" horiz-adv-x="737" d="M154 0v610q0 111 -13 391h172l11 -178q88 193 284 193q51 0 101 -15v-170q-47 18 -88 19q-90 0 -159 -55.5t-100 -153.5q-23 -68 -22 -248v-393h-186z" />
<glyph unicode="s" horiz-adv-x="774" d="M84 39v166q137 -66 235 -66q84 0 138.5 37t54.5 94.5t-49 94.5q-23 16 -84 47l-78 39q-109 55 -156 98q-74 74 -73 180q0 131 95 211t253 80q111 0 233 -41l-14 -158q-102 51 -203 51q-76 0 -122 -33.5t-46 -90.5q0 -78 140 -146l75 -37q123 -59 174.5 -121.5 t51.5 -156.5q0 -137 -100.5 -221t-264.5 -84q-137 0 -260 57z" />
<glyph unicode="t" horiz-adv-x="751" d="M264 119q-39 76 -39 284v453h-231v145h231v226l187 63v-289h264v-145h-264v-397q0 -147 10 -197q10 -55 51 -86t102 -31q53 0 121 31v-160q-94 -29 -172 -28q-190 0 -260 131z" />
<glyph unicode="u" horiz-adv-x="1159" d="M178 166q-49 100 -49 305v530h186v-464q0 -199 27 -269q51 -135 195 -135q160 0 239 158q27 55 34 102t7 168v440h187v-630q0 -154 12 -371h-170l-10 156q-121 -170 -336 -170q-111 0 -196 47t-126 133z" />
<glyph unicode="v" horiz-adv-x="966" d="M381 0l-369 1001h201l205 -577q66 -180 74 -250q8 53 18 84l25 76l235 667h184l-360 -1001h-213z" />
<glyph unicode="w" horiz-adv-x="1622" d="M342 0l-330 1001h203l164 -538q63 -213 76 -295l8 35q16 70 49 174l197 624h217l182 -550q41 -121 78 -283q16 104 71 289l168 544h185l-320 -1001h-215l-172 514q-61 186 -92 328q-37 -158 -90 -324l-166 -518h-213z" />
<glyph unicode="x" horiz-adv-x="972" d="M12 0l359 526l-332 475h227l164 -247q49 -76 66 -125q12 39 67 127l156 245h205l-320 -475l357 -526h-230l-186 289q-49 78 -66 121q-8 -27 -22 -56q-2 -4 -13.5 -20.5t-25.5 -40.5l-189 -293h-217z" />
<glyph unicode="y" horiz-adv-x="964" d="M84 -258q47 -18 88 -18q84 0 133 55q61 74 92 180l-385 1042h201l223 -632q49 -141 53 -207q10 59 15 76l28 84l236 679h184l-356 -991q-80 -227 -143 -307q-94 -127 -265 -127q-43 0 -114 14z" />
<glyph unicode="z" horiz-adv-x="972" d="M74 0v152l473 581q76 90 94 109l18 18q-61 -4 -143 -4h-420v145h768v-155l-483 -590q-47 -55 -80 -90q-6 -10 -25 -31q39 10 156 10h455v-145h-813z" />
<glyph unicode="{" horiz-adv-x="1009" d="M395 -119v389q0 90 -25.5 134.5t-88.5 58.5v131q115 31 114 188v408q0 166 90 231q41 31 92.5 42.5t155.5 11.5h33v-134q-121 0 -158 -30.5t-37 -136.5v-402q0 -100 -25.5 -151.5t-92.5 -92.5q66 -41 92 -95t26 -152v-396q0 -109 37 -140.5t158 -29.5v-133h-35h-55 q-143 0 -212 72.5t-69 226.5z" />
<glyph unicode="|" horiz-adv-x="1024" d="M420 -342v1708h184v-1708h-184z" />
<glyph unicode="}" horiz-adv-x="1009" d="M244 -285q121 0 157.5 31t36.5 137v402q0 100 25.5 151t93.5 92q-66 41 -92.5 95.5t-26.5 152.5v395q0 109 -36.5 140.5t-157.5 29.5v134h35h55q143 0 211.5 -73t68.5 -226v-390q0 -90 26 -134t89 -58v-131q-115 -31 -115 -189v-407q0 -166 -90 -232q-41 -31 -92 -42 t-156 -11h-32v133z" />
<glyph unicode="~" horiz-adv-x="1366" d="M295 1180l-107 69q47 98 76 135q84 115 213 115q74 0 225 -65q137 -61 192.5 -61.5t91.5 27t83 103.5l109 -63q-61 -125 -125 -178q-86 -66 -183 -66q-66 0 -288 94q-68 31 -119 31t-89 -31.5t-79 -109.5z" />
<glyph unicode="&#xa1;" horiz-adv-x="800" d="M252 791v210h211v-210h-211zM242 -365l32 986h168l25 -986h-225z" />
<glyph unicode="&#xa2;" d="M639 20v164q-211 20 -332 157.5t-121 352.5q0 211 123 349.5t330 160.5v158h104v-158q109 -12 175 -37l-13 -163q-66 37 -162 43v-705q100 8 183 59l16 -168q-90 -43 -199 -49v-164h-104zM639 350v688q-121 -35 -187.5 -122t-66.5 -216q0 -135 66.5 -227t187.5 -123z" />
<glyph unicode="&#xa3;" d="M125 0v162h182v502h-164v108h162v47q0 156 17.5 236t66.5 149q57 82 156.5 127t220.5 45t240 -39l-17 -170q-121 49 -203 50q-98 0 -169.5 -50.5t-98.5 -138.5q-23 -74 -22 -219v-37h317v-108h-311v-502h481v-162h-858z" />
<glyph unicode="&#xa4;" d="M156 127l-86 86l157 160q-78 113 -77.5 231.5t79.5 229.5l-163 159l88 88l161 -159q115 80 236 79q125 0 233 -77l162 157l86 -88l-160 -157q80 -115 80 -232q0 -121 -78 -229l162 -160l-88 -88l-160 160q-111 -80 -235 -80q-117 0 -236 78zM550.5 348q106.5 0 181.5 75 t75 181q0 104 -75 180t-177 76q-109 0 -184.5 -74.5t-75.5 -181t74.5 -181.5t181 -75z" />
<glyph unicode="&#xa5;" d="M459 0v504h-365v108h342l-94 166h-268v109h207l-271 479h242l262 -514q31 -59 43 -100q16 47 39 96l262 518h234l-267 -479h203v-109h-264l-92 -166h336v-108h-355v-504h-194z" />
<glyph unicode="&#xa6;" horiz-adv-x="1024" d="M420 676v690h184v-690h-184zM420 313h184v-655h-184v655z" />
<glyph unicode="&#xa7;" d="M131 -203q172 -72 328 -71q145 0 229 55t84 153q0 76 -50 123t-190 105l-118 49q-145 59 -203 113q-102 96 -102 235q0 111 63 199q41 59 139 96q-90 47 -127 98q-59 78 -59 185q0 158 130 257t335 99q170 0 311 -43l-18 -170q-152 57 -293 57q-131 0 -209 -53t-78 -141 q0 -72 51.5 -121t192.5 -107l143 -59q137 -57 201 -113q100 -88 100 -227q0 -190 -205 -295q96 -47 138.5 -111.5t42.5 -160.5q0 -174 -141.5 -279.5t-376.5 -105.5q-180 0 -334 53zM373 424q63 -39 159 -76l187 -74q111 94 110 205q0 80 -50 129t-201 115l-201 88 q-117 -102 -117 -213q0 -106 113 -174z" />
<glyph unicode="&#xa8;" horiz-adv-x="1024" d="M608 1202v199h178v-199h-178zM238 1202v199h178v-199h-178z" />
<glyph unicode="&#xa9;" horiz-adv-x="1607" d="M98 682q0 299 208 505t509 206q285 0 489.5 -209t204.5 -500q0 -295 -205.5 -503t-498.5 -208q-291 0 -499 209t-208 500zM209 682q0 -250 175 -429t421 -179t420 178t174 430q0 250 -173 430t-413 180q-254 0 -429 -177t-175 -433zM416 686q0 174 123 283.5t315 109.5 q111 0 197 -37l-13 -120q-92 49 -178 49q-133 0 -218 -78t-85 -203t88 -207t221 -82q84 0 183 37l8 -123q-92 -29 -189 -28q-207 0 -329.5 108.5t-122.5 290.5z" />
<glyph unicode="&#xaa;" horiz-adv-x="727" d="M313 766q-102 0 -164.5 51t-62.5 135q0 96 88 149.5t248 53.5q41 0 82 -4q-2 131 -150 131q-96 0 -192 -63l-6 116q106 57 219 58q188 0 239 -127q20 -53 21 -166v-35q-2 -23 -2 -72q0 -139 8 -219h-123q-2 29 -2 53v29q-76 -90 -203 -90zM340 870q106 0 149 82 q16 33 17 103q-20 4 -53 4q-227 0 -228 -103q0 -39 32 -62.5t83 -23.5zM106 573v97h535v-97h-535z" />
<glyph unicode="&#xab;" horiz-adv-x="1095" d="M506 506l274 397h178l-253 -397l258 -406h-175zM391 100l-282 406l274 397h178l-254 -397l258 -406h-174z" />
<glyph unicode="&#xac;" horiz-adv-x="1024" d="M68 375v172h886v-547h-184v375h-702z" />
<glyph unicode="&#xad;" horiz-adv-x="514" d="M0 428v154h514v-154h-514z" />
<glyph unicode="&#xae;" horiz-adv-x="1607" d="M98 682q0 299 208 505t509 206q285 0 489.5 -209t204.5 -500q0 -295 -205.5 -503t-498.5 -208q-291 0 -499 209t-208 500zM209 682q0 -250 175 -429t421 -179t420 178t174 430q0 250 -173 430t-413 180q-254 0 -429 -177t-175 -433zM543 293v780h205q125 0 188 -20.5 t102 -72.5t39 -118q0 -143 -155 -182q47 -25 82 -96l145 -291h-154l-106 233q-33 70 -59.5 88.5t-94.5 18.5h-59v-340h-133zM676 743h65q106 0 152.5 26t46.5 85q0 57 -44 83t-144 26h-76v-220z" />
<glyph unicode="&#xaf;" horiz-adv-x="1024" d="M221 1239v117h582v-117h-582z" />
<glyph unicode="&#xb0;" horiz-adv-x="768" d="M385 909q-125 0 -212 86t-87 211q0 117 88 202t209 85q125 0 212 -85t87 -206t-87 -207t-210 -86zM385 1022q74 0 127 53t53 125q0 76 -53 128t-129 52q-74 0 -127 -52t-53 -124q0 -78 52 -130t130 -52z" />
<glyph unicode="&#xb1;" d="M475 362v383h-395v150h395v381h150v-381h397v-150h-397v-383h-150zM80 117v149h942v-149h-942z" />
<glyph unicode="&#xb2;" horiz-adv-x="507" d="M55 819v94q272 217 273 316q0 35 -31 57.5t-78 22.5q-61 0 -139 -45l-12 90q90 35 165 35q90 0 145.5 -44.5t55.5 -115.5q0 -88 -131 -219q-53 -53 -127 -111h270v-80h-391z" />
<glyph unicode="&#xb3;" horiz-adv-x="507" d="M55 838l4 90q88 -35 150 -35q53 0 88 24.5t35 63.5q0 90 -164 90h-35v82h31q166 0 166 84q0 33 -32 53.5t-79 20.5q-61 0 -139 -33l-8 86q80 27 151 27q98 0 153.5 -40t55.5 -112q0 -86 -100 -127q106 -43 106 -137q0 -74 -60.5 -118t-162.5 -44q-86 0 -160 25z" />
<glyph unicode="&#xb4;" horiz-adv-x="1024" d="M397 1169l168 281h205l-242 -281h-131z" />
<glyph unicode="&#xb5;" horiz-adv-x="1024" d="M266 119v-465h-184v1329h184v-545q0 -106 15.5 -162.5t58.5 -95.5q66 -66 168 -65q111 0 182 88q66 84 66 250v530h184v-983h-184v158q-45 -96 -104.5 -139.5t-147.5 -43.5q-150 1 -238 144z" />
<glyph unicode="&#xb6;" d="M426 -418v1026q-178 0 -278.5 98.5t-100.5 274.5q0 106 43 192.5t119 133.5q98 59 274 59h545v-143h-104v-1641h-158v1641h-182v-1641h-158z" />
<glyph unicode="&#xb7;" horiz-adv-x="546" d="M164 395v219h219v-219h-219z" />
<glyph unicode="&#xb8;" horiz-adv-x="1024" d="M379 -158l98 158h82l-67 -111q49 10 73 11q70 0 113 -39t43 -101q0 -72 -65.5 -121t-163.5 -49q-100 0 -189 41l35 70q63 -29 133 -29q47 0 77 20.5t30 55.5q0 33 -27 54.5t-68 21.5q-14 0 -71 -14z" />
<glyph unicode="&#xb9;" horiz-adv-x="507" d="M238 819v340v29v35v47q-8 -8 -21 -17l-63 -53l-60 64l154 118h90v-563h-100z" />
<glyph unicode="&#xba;" horiz-adv-x="833" d="M415.5 754q-143.5 0 -236.5 90t-93 227q0 139 93 230.5t237 91.5q147 0 239.5 -90.5t92.5 -235.5q0 -135 -94.5 -224t-238 -89zM418 856q82 0 136 60.5t54 152.5q0 96 -53 158.5t-137 62.5t-138.5 -61.5t-54.5 -157.5q0 -94 54.5 -154.5t138.5 -60.5zM106 573v97h621v-97 h-621z" />
<glyph unicode="&#xbb;" horiz-adv-x="1095" d="M528 100l260 406l-253 397h176l274 -397l-280 -406h-177zM131 100l258 406l-254 397h178l275 -397l-283 -406h-174z" />
<glyph unicode="&#xbc;" horiz-adv-x="1765" d="M449 -66l745 1498h121l-748 -1498h-118zM334 543v495v140l-103 -91l-84 103l207 176h125v-823h-145zM1098 172v115l319 534h187v-520h102v-129h-102v-172h-146v172h-360zM1260 301h198l4 293q0 10 1 27.5t3 40.5l-151 -267z" />
<glyph unicode="&#xbd;" horiz-adv-x="1765" d="M449 -66l745 1498h121l-748 -1498h-118zM334 543v495v140l-103 -91l-84 103l207 176h125v-823h-145zM1133 0v145q356 309 356 449q0 45 -38 75.5t-95 30.5q-82 0 -191 -65l-16 143q127 53 225 53q119 0 195 -65.5t76 -167.5q0 -182 -328 -469h22h322v-129h-528z" />
<glyph unicode="&#xbe;" horiz-adv-x="1765" d="M449 -66l745 1498h121l-748 -1498h-118zM94 571l8 144q121 -53 201 -53q68 0 111 33.5t43 86.5q0 125 -205 125q-25 0 -55 -4v133h45q213 0 213 115q0 45 -38 72.5t-98 27.5q-84 0 -192 -51l-10 137q111 39 209 39q131 0 204.5 -59.5t73.5 -165.5q0 -119 -123 -178 q131 -68 131 -201q0 -109 -81.5 -174.5t-219.5 -65.5q-106 0 -217 39zM1098 172v115l319 534h187v-520h102v-129h-102v-172h-146v172h-360zM1260 301h198l4 293q0 10 1 27.5t3 40.5l-151 -267z" />
<glyph unicode="&#xbf;" horiz-adv-x="1042" d="M385 786v215h209v-215h-209zM92 -35q0 88 40 167t151 208q78 90 99 138t21 143h177q0 -139 -31 -208t-152 -204q-102 -119 -102 -221q0 -90 65.5 -145.5t174.5 -55.5q143 0 294 76l15 -191q-172 -59 -332 -59q-186 0 -303 98t-117 254z" />
<glyph unicode="&#xc0;" horiz-adv-x="1398" d="M631 1501l-264 266h225l180 -266h-141zM10 0l582 1366h205l592 -1366h-220l-143 346h-664l-141 -346h-211zM424 512h534l-157 381q-94 223 -111 305q-25 -82 -115 -309z" />
<glyph unicode="&#xc1;" horiz-adv-x="1398" d="M647 1501l178 266h228l-265 -266h-141zM10 0l582 1366h205l592 -1366h-220l-143 346h-664l-141 -346h-211zM424 512h534l-157 381q-94 223 -111 305q-25 -82 -115 -309z" />
<glyph unicode="&#xc2;" horiz-adv-x="1398" d="M389 1501l225 266h187l225 -266h-172l-147 170l-146 -170h-172zM10 0l582 1366h205l592 -1366h-220l-143 346h-664l-141 -346h-211zM424 512h534l-157 381q-94 223 -111 305q-25 -82 -115 -309z" />
<glyph unicode="&#xc3;" horiz-adv-x="1398" d="M395 1518q39 215 203 215q70 0 199 -58q53 -25 82 -24q76 0 96 90h96q0 -4 -1 -11.5t-3 -9.5q-10 -57 -17.5 -76.5t-27.5 -46.5q-53 -76 -143 -75q-39 0 -70 9t-123 48q-74 31 -108 31q-29 0 -52.5 -25.5t-33.5 -66.5h-97zM10 0l582 1366h205l592 -1366h-220l-143 346 h-664l-141 -346h-211zM424 512h534l-157 381q-94 223 -111 305q-25 -82 -115 -309z" />
<glyph unicode="&#xc4;" horiz-adv-x="1398" d="M801 1528v198h186v-198h-186zM403 1528v198h187v-198h-187zM10 0l582 1366h205l592 -1366h-220l-143 346h-664l-141 -346h-211zM424 512h534l-157 381q-94 223 -111 305q-25 -82 -115 -309z" />
<glyph unicode="&#xc5;" horiz-adv-x="1398" d="M702 1446q-86 0 -145 60.5t-59 144.5t60 143t147 59q82 0 141 -60t59 -142q0 -84 -59.5 -144.5t-143.5 -60.5zM700 1550q41 0 70 30t29 71q0 39 -29 68.5t-68 29.5q-41 0 -70.5 -28.5t-29.5 -69.5t28.5 -71t69.5 -30zM10 0l582 1366h205l592 -1366h-220l-143 346h-664 l-141 -346h-211zM424 512h534l-157 381q-94 223 -111 305q-25 -82 -115 -309z" />
<glyph unicode="&#xc6;" horiz-adv-x="1847" d="M12 0l824 1366h860v-166h-549l31 -412h485v-165h-473l31 -457h499v-166h-680l-26 350h-576l-207 -350h-219zM532 516h469l-45 709z" />
<glyph unicode="&#xc7;" horiz-adv-x="1189" d="M354 133q-256 199 -256 557q0 303 200 494.5t517 191.5q180 0 311 -61l-16 -185q-141 80 -285 80q-229 0 -373.5 -144t-144.5 -372q0 -229 149.5 -379.5t377.5 -150.5q137 0 292 61l15 -188q-139 -47 -295 -47q-33 0 -60 2l-61 -103q51 10 72 11q68 0 112.5 -40 t44.5 -102q0 -78 -65.5 -127t-169.5 -49q-98 0 -189 41l35 72q66 -27 133 -27q47 0 77 21.5t30 56.5q0 33 -27.5 55.5t-66.5 22.5q-20 0 -72 -14l-33 32l96 156q-213 31 -348 135z" />
<glyph unicode="&#xc8;" horiz-adv-x="1079" d="M520 1501l-264 266h225l181 -266h-142zM176 0v1366h760v-166h-565v-403h524v-166h-524v-465h581v-166h-776z" />
<glyph unicode="&#xc9;" horiz-adv-x="1079" d="M467 1501l178 266h227l-264 -266h-141zM176 0v1366h760v-166h-565v-403h524v-166h-524v-465h581v-166h-776z" />
<glyph unicode="&#xca;" horiz-adv-x="1079" d="M246 1501l225 266h186l226 -266h-172l-148 170l-145 -170h-172zM176 0v1366h760v-166h-565v-403h524v-166h-524v-465h581v-166h-776z" />
<glyph unicode="&#xcb;" horiz-adv-x="1079" d="M670 1528v198h186v-198h-186zM272 1528v198h187v-198h-187zM176 0v1366h760v-166h-565v-403h524v-166h-524v-465h581v-166h-776z" />
<glyph unicode="&#xcc;" horiz-adv-x="573" d="M240 1501l-244 266h219l166 -266h-141zM190 0v1366h195v-1366h-195z" />
<glyph unicode="&#xcd;" horiz-adv-x="573" d="M221 1501l166 266h219l-244 -266h-141zM190 0v1366h195v-1366h-195z" />
<glyph unicode="&#xce;" horiz-adv-x="573" d="M10 1501l191 266h186l191 -266h-164l-119 176l-121 -176h-164zM190 0v1366h195v-1366h-195z" />
<glyph unicode="&#xcf;" horiz-adv-x="573" d="M348 1528v198h176v-198h-176zM63 1528v198h177v-198h-177zM190 0v1366h195v-1366h-195z" />
<glyph unicode="&#xd0;" horiz-adv-x="1411" d="M176 0v629h-137v164h137v573h281q242 0 362 -33q219 -59 356.5 -241.5t137.5 -413.5q0 -219 -125 -391t-334 -242q-141 -45 -369 -45h-309zM369 168h102q231 0 346 49q135 57 212 181t77 286q0 164 -90 296t-236 183q-98 35 -307 35h-104v-405h354v-164h-354v-461z" />
<glyph unicode="&#xd1;" horiz-adv-x="1443" d="M438 1518q39 215 203 215q70 0 199 -58q53 -25 82 -24q76 0 96 90h96q0 -4 -1 -11.5t-3 -9.5q-10 -57 -17.5 -76.5t-27.5 -46.5q-53 -76 -143 -75q-39 0 -70 9t-123 48q-74 31 -108 31q-29 0 -52.5 -25.5t-33.5 -66.5h-97zM176 0v1366h266l465 -805q137 -240 187 -391 q-20 199 -21 539v657h195v-1366h-252l-432 741q-186 319 -230 469q16 -186 17 -514v-696h-195z" />
<glyph unicode="&#xd2;" horiz-adv-x="1517" d="M717 1501l-264 266h225l180 -266h-141zM281 166q-84 92 -133.5 230.5t-49.5 283.5q0 156 51.5 298t141.5 239q166 176 477 176q297 0 474 -193.5t177 -517.5q0 -305 -164 -504q-170 -205 -493 -205q-307 0 -481 193zM307 684q0 -246 127 -401.5t325.5 -155.5t324.5 154.5 t126 396.5q0 248 -123.5 404.5t-320.5 156.5q-209 0 -334 -150.5t-125 -404.5z" />
<glyph unicode="&#xd3;" horiz-adv-x="1517" d="M692 1501l178 266h228l-264 -266h-142zM281 166q-84 92 -133.5 230.5t-49.5 283.5q0 156 51.5 298t141.5 239q166 176 477 176q297 0 474 -193.5t177 -517.5q0 -305 -164 -504q-170 -205 -493 -205q-307 0 -481 193zM307 684q0 -246 127 -401.5t325.5 -155.5t324.5 154.5 t126 396.5q0 248 -123.5 404.5t-320.5 156.5q-209 0 -334 -150.5t-125 -404.5z" />
<glyph unicode="&#xd4;" horiz-adv-x="1517" d="M461 1501l225 266h186l226 -266h-172l-148 170l-145 -170h-172zM281 166q-84 92 -133.5 230.5t-49.5 283.5q0 156 51.5 298t141.5 239q166 176 477 176q297 0 474 -193.5t177 -517.5q0 -305 -164 -504q-170 -205 -493 -205q-307 0 -481 193zM307 684q0 -246 127 -401.5 t325.5 -155.5t324.5 154.5t126 396.5q0 248 -123.5 404.5t-320.5 156.5q-209 0 -334 -150.5t-125 -404.5z" />
<glyph unicode="&#xd5;" horiz-adv-x="1517" d="M455 1518q39 215 202 215q70 0 199 -58q53 -25 82 -24q76 0 96 90h96q0 -4 -1 -11.5t-3 -9.5q-10 -57 -17 -76.5t-28 -46.5q-53 -76 -143 -75q-39 0 -69.5 9t-123.5 48q-74 31 -108 31q-29 0 -52.5 -25.5t-33.5 -66.5h-96zM281 166q-84 92 -133.5 230.5t-49.5 283.5 q0 156 51.5 298t141.5 239q166 176 477 176q297 0 474 -193.5t177 -517.5q0 -305 -164 -504q-170 -205 -493 -205q-307 0 -481 193zM307 684q0 -246 127 -401.5t325.5 -155.5t324.5 154.5t126 396.5q0 248 -123.5 404.5t-320.5 156.5q-209 0 -334 -150.5t-125 -404.5z" />
<glyph unicode="&#xd6;" horiz-adv-x="1517" d="M879 1528v198h186v-198h-186zM481 1528v198h187v-198h-187zM281 166q-84 92 -133.5 230.5t-49.5 283.5q0 156 51.5 298t141.5 239q166 176 477 176q297 0 474 -193.5t177 -517.5q0 -305 -164 -504q-170 -205 -493 -205q-307 0 -481 193zM307 684q0 -246 127 -401.5 t325.5 -155.5t324.5 154.5t126 396.5q0 248 -123.5 404.5t-320.5 156.5q-209 0 -334 -150.5t-125 -404.5z" />
<glyph unicode="&#xd7;" d="M252 291l-107 106l299 299l-299 299l107 107l299 -299l299 299l106 -107l-299 -299l299 -299l-106 -106l-299 299z" />
<glyph unicode="&#xd8;" horiz-adv-x="1517" d="M111 51l135 156q-147 203 -148 479q0 150 51.5 292t141.5 239q166 176 465 176q246 0 420 -129l127 145l104 -84l-137 -158q150 -207 149 -485q0 -324 -177 -516.5t-476 -192.5q-260 0 -426 136l-127 -144zM383 358l664 768q-109 113 -293 113q-199 0 -323 -153.5 t-124 -397.5q0 -191 76 -330zM467 244q135 -117 293 -117q199 0 324.5 153.5t125.5 395.5q0 176 -77 344z" />
<glyph unicode="&#xd9;" horiz-adv-x="1409" d="M664 1501l-265 266h226l180 -266h-141zM229 254q-53 119 -53 369v743h195v-715q0 -248 49 -346q39 -78 116.5 -122t176.5 -44q225 0 297 207q29 80 28 295v725h195v-770q0 -156 -17.5 -244t-64.5 -159q-137 -219 -444 -220q-170 0 -295.5 73t-182.5 208z" />
<glyph unicode="&#xda;" horiz-adv-x="1409" d="M631 1501l178 266h227l-264 -266h-141zM229 254q-53 119 -53 369v743h195v-715q0 -248 49 -346q39 -78 116.5 -122t176.5 -44q225 0 297 207q29 80 28 295v725h195v-770q0 -156 -17.5 -244t-64.5 -159q-137 -219 -444 -220q-170 0 -295.5 73t-182.5 208z" />
<glyph unicode="&#xdb;" horiz-adv-x="1409" d="M399 1501l226 266h186l225 -266h-172l-147 170l-146 -170h-172zM229 254q-53 119 -53 369v743h195v-715q0 -248 49 -346q39 -78 116.5 -122t176.5 -44q225 0 297 207q29 80 28 295v725h195v-770q0 -156 -17.5 -244t-64.5 -159q-137 -219 -444 -220q-170 0 -295.5 73 t-182.5 208z" />
<glyph unicode="&#xdc;" horiz-adv-x="1409" d="M823 1528v198h187v-198h-187zM426 1528v198h186v-198h-186zM229 254q-53 119 -53 369v743h195v-715q0 -248 49 -346q39 -78 116.5 -122t176.5 -44q225 0 297 207q29 80 28 295v725h195v-770q0 -156 -17.5 -244t-64.5 -159q-137 -219 -444 -220q-170 0 -295.5 73 t-182.5 208z" />
<glyph unicode="&#xdd;" horiz-adv-x="1288" d="M565 1501l178 266h228l-264 -266h-142zM551 0v573l-541 793h242l338 -512q45 -66 59 -102q16 37 56 96l342 518h231l-533 -786v-580h-194z" />
<glyph unicode="&#xde;" horiz-adv-x="1091" d="M176 0v1366h197v-192h76q244 0 346 -37q115 -41 181 -141.5t66 -229.5t-64.5 -227.5t-178.5 -143.5q-100 -41 -318 -41h-108v-354h-197zM373 520h106q170 0 242 39q115 66 115 207q0 168 -177 223q-66 18 -204 19h-82v-488z" />
<glyph unicode="&#xdf;" horiz-adv-x="1181" d="M141 0v811q0 195 9.5 275.5t37.5 148.5q51 119 160 185.5t254 66.5q184 0 299 -108.5t115 -282.5q0 -115 -61.5 -198t-172.5 -118q131 -6 217 -112.5t86 -261.5q0 -180 -116 -302q-119 -119 -332 -118q-61 0 -170 14v164q82 -31 149 -31q121 0 197 77t76 202 q0 139 -86 212.5t-248 73.5h-37v152h33q129 0 198.5 63.5t69.5 182.5q0 109 -62.5 176t-162.5 67q-78 0 -140.5 -44t-91.5 -119q-35 -88 -34 -349v-827h-187z" />
<glyph unicode="&#xe0;" horiz-adv-x="1083" d="M483 1169l-241 281h204l168 -281h-131zM88 287q0 158 136 243.5t388 85.5q43 0 140 -6q-2 252 -250 252q-150 0 -295 -98l-10 164q160 92 335 92q270 0 359 -184q41 -84 41 -287v-209q0 -211 10 -340h-170q-2 39 -2 80q0 31 2 92q-111 -186 -336 -186q-158 0 -253 82 t-95 219zM285 289q0 -70 54 -113t138 -43q82 0 148.5 39t99.5 107q31 63 31 194q-51 6 -101 6q-370 0 -370 -190z" />
<glyph unicode="&#xe1;" horiz-adv-x="1083" d="M473 1169l168 281h205l-242 -281h-131zM88 287q0 158 136 243.5t388 85.5q43 0 140 -6q-2 252 -250 252q-150 0 -295 -98l-10 164q160 92 335 92q270 0 359 -184q41 -84 41 -287v-209q0 -211 10 -340h-170q-2 39 -2 80q0 31 2 92q-111 -186 -336 -186q-158 0 -253 82 t-95 219zM285 289q0 -70 54 -113t138 -43q82 0 148.5 39t99.5 107q31 63 31 194q-51 6 -101 6q-370 0 -370 -190z" />
<glyph unicode="&#xe2;" horiz-adv-x="1083" d="M254 1169l211 281h182l211 -281h-156l-145 189l-147 -189h-156zM88 287q0 158 136 243.5t388 85.5q43 0 140 -6q-2 252 -250 252q-150 0 -295 -98l-10 164q160 92 335 92q270 0 359 -184q41 -84 41 -287v-209q0 -211 10 -340h-170q-2 39 -2 80q0 31 2 92 q-111 -186 -336 -186q-158 0 -253 82t-95 219zM285 289q0 -70 54 -113t138 -43q82 0 148.5 39t99.5 107q31 63 31 194q-51 6 -101 6q-370 0 -370 -190z" />
<glyph unicode="&#xe3;" horiz-adv-x="1083" d="M272 1198q29 205 189 205q33 0 56.5 -7t115.5 -46q47 -20 72 -21q63 0 75 78h97q-14 -96 -59.5 -150.5t-115.5 -54.5q-49 0 -215 72q-18 8 -43 8q-59 0 -75 -84h-97zM88 287q0 158 136 243.5t388 85.5q43 0 140 -6q-2 252 -250 252q-150 0 -295 -98l-10 164 q160 92 335 92q270 0 359 -184q41 -84 41 -287v-209q0 -211 10 -340h-170q-2 39 -2 80q0 31 2 92q-111 -186 -336 -186q-158 0 -253 82t-95 219zM285 289q0 -70 54 -113t138 -43q82 0 148.5 39t99.5 107q31 63 31 194q-51 6 -101 6q-370 0 -370 -190z" />
<glyph unicode="&#xe4;" horiz-adv-x="1083" d="M666 1202v199h178v-199h-178zM295 1202v199h178v-199h-178zM88 287q0 158 136 243.5t388 85.5q43 0 140 -6q-2 252 -250 252q-150 0 -295 -98l-10 164q160 92 335 92q270 0 359 -184q41 -84 41 -287v-209q0 -211 10 -340h-170q-2 39 -2 80q0 31 2 92q-111 -186 -336 -186 q-158 0 -253 82t-95 219zM285 289q0 -70 54 -113t138 -43q82 0 148.5 39t99.5 107q31 63 31 194q-51 6 -101 6q-370 0 -370 -190z" />
<glyph unicode="&#xe5;" horiz-adv-x="1083" d="M547 1118q-82 0 -140.5 58.5t-58.5 142.5q0 82 59.5 139.5t143.5 57.5q78 0 136 -58.5t58 -140.5t-58 -140.5t-140 -58.5zM547 1219q39 0 68.5 29.5t29.5 68.5t-28.5 68.5t-67.5 29.5q-41 0 -70.5 -28.5t-29.5 -69.5t28.5 -69.5t69.5 -28.5zM88 287q0 158 136 243.5 t388 85.5q43 0 140 -6q-2 252 -250 252q-150 0 -295 -98l-10 164q160 92 335 92q270 0 359 -184q41 -84 41 -287v-209q0 -211 10 -340h-170q-2 39 -2 80q0 31 2 92q-111 -186 -336 -186q-158 0 -253 82t-95 219zM285 289q0 -70 54 -113t138 -43q82 0 148.5 39t99.5 107 q31 63 31 194q-51 6 -101 6q-370 0 -370 -190z" />
<glyph unicode="&#xe6;" horiz-adv-x="1751" d="M88 293q0 178 180 266q125 61 379 62h135q-2 94 -39 143q-70 100 -241 100q-156 0 -295 -96v170q168 84 332 84q123 0 215 -47t125 -125q39 80 131 126t213 46q268 0 381 -217q63 -121 65 -344h-708q10 -152 102 -240t242 -88q127 0 264 86v-182q-133 -51 -295 -51 q-186 0 -311 82q-98 68 -115 151q-23 -106 -127.5 -169.5t-255.5 -63.5q-170 0 -273.5 84t-103.5 223zM961 606h505q-10 133 -74.5 206t-171 73t-177 -76t-82.5 -203zM285 291q0 -70 55 -114t139 -44q127 0 215 98.5t88 241.5h-118q-170 0 -246 -29q-133 -47 -133 -153z" />
<glyph unicode="&#xe7;" horiz-adv-x="874" d="M387 -156l94 154q-184 27 -292.5 164t-108.5 338q0 223 142.5 368.5t359.5 145.5q123 0 227 -41l-12 -164q-80 47 -183 47q-150 0 -244 -98.5t-94 -249.5q0 -162 93.5 -262.5t240.5 -100.5q106 0 209 64l15 -170q-104 -51 -240 -51h-37l-59 -97q55 8 75 9q68 0 111 -39 t43 -101q0 -72 -65.5 -121t-161.5 -49q-100 0 -191 41l35 70q66 -29 133 -29q47 0 77 20.5t30 55.5q0 33 -27 54.5t-65 21.5q-25 0 -74 -14z" />
<glyph unicode="&#xe8;" horiz-adv-x="1069" d="M498 1169l-242 281h205l168 -281h-131zM80 510q0 233 130 375.5t343 142.5q207 0 321.5 -142.5t114.5 -400.5q0 -18 -2 -32h-721q18 -150 108.5 -236t227.5 -86q156 0 311 94v-178q-162 -74 -321 -74q-236 0 -374 145.5t-138 391.5zM268 598h535q-16 121 -51 172 q-72 111 -205 111q-111 0 -186 -77t-93 -206z" />
<glyph unicode="&#xe9;" horiz-adv-x="1069" d="M494 1169l168 281h204l-241 -281h-131zM80 510q0 233 130 375.5t343 142.5q207 0 321.5 -142.5t114.5 -400.5q0 -18 -2 -32h-721q18 -150 108.5 -236t227.5 -86q156 0 311 94v-178q-162 -74 -321 -74q-236 0 -374 145.5t-138 391.5zM268 598h535q-16 121 -51 172 q-72 111 -205 111q-111 0 -186 -77t-93 -206z" />
<glyph unicode="&#xea;" horiz-adv-x="1069" d="M258 1169l211 281h182l211 -281h-155l-146 189l-147 -189h-156zM80 510q0 233 130 375.5t343 142.5q207 0 321.5 -142.5t114.5 -400.5q0 -18 -2 -32h-721q18 -150 108.5 -236t227.5 -86q156 0 311 94v-178q-162 -74 -321 -74q-236 0 -374 145.5t-138 391.5zM268 598h535 q-16 121 -51 172q-72 111 -205 111q-111 0 -186 -77t-93 -206z" />
<glyph unicode="&#xeb;" horiz-adv-x="1069" d="M651 1202v199h178v-199h-178zM281 1202v199h178v-199h-178zM80 510q0 233 130 375.5t343 142.5q207 0 321.5 -142.5t114.5 -400.5q0 -18 -2 -32h-721q18 -150 108.5 -236t227.5 -86q156 0 311 94v-178q-162 -74 -321 -74q-236 0 -374 145.5t-138 391.5zM268 598h535 q-16 121 -51 172q-72 111 -205 111q-111 0 -186 -77t-93 -206z" />
<glyph unicode="&#xec;" horiz-adv-x="468" d="M188 1169l-221 281h199l153 -281h-131zM143 0v1001h187v-1001h-187z" />
<glyph unicode="&#xed;" horiz-adv-x="468" d="M178 1169l154 281h198l-221 -281h-131zM141 0v1001h187v-1001h-187z" />
<glyph unicode="&#xee;" horiz-adv-x="468" d="M-20 1169l176 281h182l178 -281h-149l-119 195l-119 -195h-149zM141 0v1001h187v-1001h-187z" />
<glyph unicode="&#xef;" horiz-adv-x="468" d="M295 1202v199h168v-199h-168zM23 1202v199h167v-199h-167zM143 0v1001h187v-1001h-187z" />
<glyph unicode="&#xf0;" horiz-adv-x="1185" d="M80 495.5q0 225.5 140 377t351 151.5q90 0 144.5 -20.5t124.5 -79.5q-14 84 -74.5 181t-130.5 142l-221 -143l-64 94l172 113q-88 35 -231 63l37 113q152 -4 334 -86l223 143l76 -90l-193 -125q141 -117 231 -307q106 -215 107 -479q0 -152 -32 -245t-109 -175 q-143 -150 -371 -150q-221 0 -367.5 148.5t-146.5 374zM279 498q0 -166 88 -271.5t227 -105.5q137 0 226 103.5t89 262.5q0 180 -85 285t-232 105q-137 0 -225 -106.5t-88 -272.5z" />
<glyph unicode="&#xf1;" horiz-adv-x="1169" d="M309 1198q29 205 189 205q33 0 56.5 -7t115.5 -46q47 -20 71 -21q63 0 76 78h96q-14 -96 -59 -150.5t-115 -54.5q-49 0 -215 72q-18 8 -43 8q-59 0 -75 -84h-97zM154 0v496q0 256 -13 505h174l9 -157q119 176 344 176q131 0 221 -63.5t125 -180.5q27 -82 26 -309v-467 h-186v451q0 188 -16 247q-45 164 -211 164q-92 0 -164 -56t-101 -151q-23 -78 -22 -288v-367h-186z" />
<glyph unicode="&#xf2;" horiz-adv-x="1185" d="M549 1169l-242 281h205l168 -281h-131zM80 498q0 229 144.5 379.5t365.5 150.5q229 0 372.5 -149.5t143.5 -386.5q0 -225 -145.5 -372t-370.5 -147q-219 0 -364.5 150t-145.5 375zM276 500q0 -168 89.5 -273.5t228.5 -105.5q137 0 226 105.5t89 265.5q0 172 -88 280.5 t-227 108.5t-228.5 -107.5t-89.5 -273.5z" />
<glyph unicode="&#xf3;" horiz-adv-x="1185" d="M539 1169l168 281h204l-241 -281h-131zM80 498q0 229 144.5 379.5t365.5 150.5q229 0 372.5 -149.5t143.5 -386.5q0 -225 -145.5 -372t-370.5 -147q-219 0 -364.5 150t-145.5 375zM276 500q0 -168 89.5 -273.5t228.5 -105.5q137 0 226 105.5t89 265.5q0 172 -88 280.5 t-227 108.5t-228.5 -107.5t-89.5 -273.5z" />
<glyph unicode="&#xf4;" horiz-adv-x="1185" d="M311 1169l211 281h183l210 -281h-155l-146 189l-147 -189h-156zM80 498q0 229 144.5 379.5t365.5 150.5q229 0 372.5 -149.5t143.5 -386.5q0 -225 -145.5 -372t-370.5 -147q-219 0 -364.5 150t-145.5 375zM276 500q0 -168 89.5 -273.5t228.5 -105.5q137 0 226 105.5 t89 265.5q0 172 -88 280.5t-227 108.5t-228.5 -107.5t-89.5 -273.5z" />
<glyph unicode="&#xf5;" horiz-adv-x="1185" d="M324 1198q29 205 188 205q33 0 56.5 -7t115.5 -46q45 -20 72 -21q63 0 75 78h97q-14 -96 -59.5 -150.5t-114.5 -54.5q-49 0 -215 72q-18 8 -43 8q-59 0 -76 -84h-96zM80 498q0 229 144.5 379.5t365.5 150.5q229 0 372.5 -149.5t143.5 -386.5q0 -225 -145.5 -372 t-370.5 -147q-219 0 -364.5 150t-145.5 375zM276 500q0 -168 89.5 -273.5t228.5 -105.5q137 0 226 105.5t89 265.5q0 172 -88 280.5t-227 108.5t-228.5 -107.5t-89.5 -273.5z" />
<glyph unicode="&#xf6;" horiz-adv-x="1185" d="M702 1202v199h179v-199h-179zM332 1202v199h178v-199h-178zM80 498q0 229 144.5 379.5t365.5 150.5q229 0 372.5 -149.5t143.5 -386.5q0 -225 -145.5 -372t-370.5 -147q-219 0 -364.5 150t-145.5 375zM276 500q0 -168 89.5 -273.5t228.5 -105.5q137 0 226 105.5t89 265.5 q0 172 -88 280.5t-227 108.5t-228.5 -107.5t-89.5 -273.5z" />
<glyph unicode="&#xf7;" d="M453 909v195h194v-195h-194zM80 623v149h942v-149h-942zM453 291v194h194v-194h-194z" />
<glyph unicode="&#xf8;" horiz-adv-x="1185" d="M82 29l115 125q-117 141 -117 346q0 229 144.5 378.5t365.5 149.5q172 0 305 -94l113 125l94 -80l-115 -129q119 -143 119 -354q0 -229 -145.5 -376t-370.5 -147q-164 0 -303 95l-111 -125zM324 287l450 526q-61 68 -180 68q-139 0 -228.5 -107.5t-89.5 -275.5 q1 -100 48 -211zM406 193q74 -72 190 -72q135 0 225 107.5t90 269.5q0 123 -53 217z" />
<glyph unicode="&#xf9;" horiz-adv-x="1159" d="M528 1169l-241 281h205l167 -281h-131zM178 166q-49 100 -49 305v530h186v-464q0 -199 27 -269q51 -135 195 -135q160 0 239 158q27 55 34 102t7 168v440h187v-630q0 -154 12 -371h-170l-10 156q-121 -170 -336 -170q-111 0 -196 47t-126 133z" />
<glyph unicode="&#xfa;" horiz-adv-x="1159" d="M504 1169l168 281h205l-242 -281h-131zM178 166q-49 100 -49 305v530h186v-464q0 -199 27 -269q51 -135 195 -135q160 0 239 158q27 55 34 102t7 168v440h187v-630q0 -154 12 -371h-170l-10 156q-121 -170 -336 -170q-111 0 -196 47t-126 133z" />
<glyph unicode="&#xfb;" horiz-adv-x="1159" d="M279 1169l210 281h183l211 -281h-156l-145 189l-148 -189h-155zM178 166q-49 100 -49 305v530h186v-464q0 -199 27 -269q51 -135 195 -135q160 0 239 158q27 55 34 102t7 168v440h187v-630q0 -154 12 -371h-170l-10 156q-121 -170 -336 -170q-111 0 -196 47t-126 133z " />
<glyph unicode="&#xfc;" horiz-adv-x="1159" d="M676 1202v199h178v-199h-178zM305 1202v199h178v-199h-178zM178 166q-49 100 -49 305v530h186v-464q0 -199 27 -269q51 -135 195 -135q160 0 239 158q27 55 34 102t7 168v440h187v-630q0 -154 12 -371h-170l-10 156q-121 -170 -336 -170q-111 0 -196 47t-126 133z" />
<glyph unicode="&#xfd;" horiz-adv-x="964" d="M416 1169l168 281h204l-241 -281h-131zM84 -258q47 -18 88 -18q84 0 133 55q61 74 92 180l-385 1042h201l223 -632q49 -141 53 -207q10 59 15 76l28 84l236 679h184l-356 -991q-80 -227 -143 -307q-94 -127 -265 -127q-43 0 -114 14z" />
<glyph unicode="&#xfe;" horiz-adv-x="1187" d="M338 -10v-408h-184v1893h184v-474q0 -84 -12 -176q125 195 350 195q193 0 311.5 -139.5t118.5 -366.5q0 -238 -120 -383t-314 -145q-240 0 -344 196l2 -32q8 -115 8 -160zM338 498q0 -150 84 -252.5t209 -102.5q119 0 198.5 102.5t79.5 256.5q0 160 -74.5 259t-195.5 99 q-131 0 -216 -102t-85 -260z" />
<glyph unicode="&#xff;" horiz-adv-x="964" d="M590 1202v199h178v-199h-178zM219 1202v199h178v-199h-178zM84 -258q47 -18 88 -18q84 0 133 55q61 74 92 180l-385 1042h201l223 -632q49 -141 53 -207q10 59 15 76l28 84l236 679h184l-356 -991q-80 -227 -143 -307q-94 -127 -265 -127q-43 0 -114 14z" />
<glyph unicode="&#x131;" horiz-adv-x="468" d="M141 0v1001h187v-1001h-187z" />
<glyph unicode="&#x141;" horiz-adv-x="983" d="M176 0v535l-137 -91v181l137 90v651h195v-567l311 202v-180l-311 -203v-452h575v-166h-770z" />
<glyph unicode="&#x142;" horiz-adv-x="497" d="M156 0v647l-138 -88v174l138 88v654h186v-578l135 88v-174l-135 -90v-721h-186z" />
<glyph unicode="&#x152;" horiz-adv-x="1855" d="M96 694q0 190 88 343t246 237q102 53 219 72.5t350 19.5h261h450v-166h-549v-407h510v-166h-510v-461h568v-166h-658q-82 2 -246 4q-330 6 -529.5 195.5t-199.5 494.5zM604 215q66 -27 128.5 -36t199.5 -11q16 0 35 -2v1034q-205 0 -303 -22q-168 -39 -263.5 -167 t-95.5 -317q0 -168 79 -295t220 -184z" />
<glyph unicode="&#x153;" horiz-adv-x="1851" d="M80 508q0 225 140 373.5t353 148.5q143 0 252 -60.5t144 -160.5q37 106 130 163.5t228 57.5q260 0 377 -215q66 -121 65 -356h-704q12 -154 101 -241t235 -87q143 0 270 92v-184q-137 -66 -309 -66q-152 0 -256.5 59.5t-136.5 162.5q-33 -100 -139.5 -161t-245.5 -61 q-221 0 -362.5 151t-141.5 384zM1067 604h498q-2 127 -67.5 203t-172.5 76q-102 0 -175 -78t-83 -201zM276 500q0 -162 87.5 -270.5t216.5 -108.5q133 0 219 107.5t86 271.5t-86 273.5t-217 109.5q-135 0 -220.5 -106.5t-85.5 -276.5z" />
<glyph unicode="&#x160;" horiz-adv-x="970" d="M410 1501l-226 266h172l146 -170l147 170h172l-225 -266h-186zM111 29l20 182q150 -72 268 -72q127 0 204 63.5t77 168.5q0 76 -50 132t-161 107l-76 35q-162 74 -233.5 161t-71.5 214q0 168 119 270.5t311 102.5q152 0 299 -50l-24 -172q-147 55 -256 55.5t-177.5 -52 t-68.5 -136.5q0 -70 47 -120t174 -113l74 -37q172 -86 237.5 -169t65.5 -214q0 -184 -128 -298t-337 -114q-170 1 -313 56z" />
<glyph unicode="&#x161;" horiz-adv-x="774" d="M305 1169l-211 281h156l147 -188l146 188h155l-211 -281h-182zM84 39v166q137 -66 235 -66q84 0 138.5 37t54.5 94.5t-49 94.5q-23 16 -84 47l-78 39q-109 55 -156 98q-74 74 -73 180q0 131 95 211t253 80q111 0 233 -41l-14 -158q-102 51 -203 51q-76 0 -122 -33.5 t-46 -90.5q0 -78 140 -146l75 -37q123 -59 174.5 -121.5t51.5 -156.5q0 -137 -100.5 -221t-264.5 -84q-137 0 -260 57z" />
<glyph unicode="&#x178;" horiz-adv-x="1288" d="M762 1528v198h186v-198h-186zM365 1528v198h186v-198h-186zM551 0v573l-541 793h242l338 -512q45 -66 59 -102q16 37 56 96l342 518h231l-533 -786v-580h-194z" />
<glyph unicode="&#x17d;" horiz-adv-x="1093" d="M473 1501l-225 266h172l145 -170l148 170h172l-226 -266h-186zM61 0v166l555 805q123 180 175 233q-100 -4 -191 -4h-514v166h915v-180l-585 -842q-8 -12 -25.5 -35.5t-19.5 -27.5q-25 -33 -37 -52q-27 -33 -27 -34q-2 -2 -22 -35q49 6 151 6h578v-166h-953z" />
<glyph unicode="&#x17e;" horiz-adv-x="972" d="M416 1169l-211 281h155l148 -188l145 188h156l-211 -281h-182zM74 0v152l473 581q76 90 94 109l18 18q-61 -4 -143 -4h-420v145h768v-155l-483 -590q-47 -55 -80 -90q-6 -10 -25 -31q39 10 156 10h455v-145h-813z" />
<glyph unicode="&#x192;" d="M100 -104q10 0 22.5 -1t20 -2.5t13.5 -1.5q84 0 118 54q37 55 78 276l119 635h-219l24 137h220l30 154q37 184 84 252q92 127 258 127q78 0 150 -19l-27 -153q-51 12 -92 12q-100 0 -145 -90q-20 -45 -39 -141l-27 -142h246l-25 -137h-247l-121 -651q-33 -172 -58.5 -250 t-64.5 -125q-82 -96 -256 -96q-49 0 -92 8z" />
<glyph unicode="&#x2c6;" horiz-adv-x="1024" d="M209 1169l211 281h182l211 -281h-156l-145 189l-147 -189h-156z" />
<glyph unicode="&#x2c7;" horiz-adv-x="1024" d="M420 1169l-211 281h156l147 -188l145 188h156l-211 -281h-182z" />
<glyph unicode="&#x2d8;" horiz-adv-x="1024" d="M512 1174q-123 0 -198.5 75.5t-80.5 200.5h107q10 -70 57 -112t115 -42q70 0 116 42t56 112h107q-4 -127 -80 -201.5t-199 -74.5z" />
<glyph unicode="&#x2d9;" horiz-adv-x="1024" d="M422 1202v199h178v-199h-178z" />
<glyph unicode="&#x2da;" horiz-adv-x="1024" d="M512 1118q-82 0 -140.5 58.5t-58.5 142.5q0 82 59.5 139.5t143.5 57.5q78 0 136.5 -58.5t58.5 -140.5t-58.5 -140.5t-140.5 -58.5zM512 1219q41 0 69.5 29.5t28.5 68.5t-28.5 68.5t-67.5 29.5q-41 0 -70.5 -28.5t-29.5 -69.5t28.5 -69.5t69.5 -28.5z" />
<glyph unicode="&#x2db;" horiz-adv-x="1024" d="M621 -199q0 109 159 199h107q-127 -94 -127 -174q0 -33 27.5 -59.5t62.5 -26.5q31 0 68 12v-86q-49 -25 -115 -24q-76 0 -129 46.5t-53 112.5z" />
<glyph unicode="&#x2dc;" horiz-adv-x="1024" d="M209 1198q29 205 188 205q33 0 56.5 -7t115.5 -46q45 -20 72 -21q63 0 76 78h96q-14 -96 -59 -150.5t-115 -54.5q-49 0 -215 72q-18 8 -43 8q-59 0 -76 -84h-96z" />
<glyph unicode="&#x2dd;" horiz-adv-x="1024" d="M588 1169l147 281h191l-221 -281h-117zM270 1169l148 281h190l-221 -281h-117z" />
<glyph unicode="&#x3a9;" horiz-adv-x="1366" d="M59 0v166h340q-176 106 -258 246.5t-82 335.5q0 276 179.5 463.5t445.5 187.5t445.5 -187.5t179.5 -466.5q0 -195 -83 -335t-257 -244h340v-166h-541v150q137 78 209 161q143 172 143 414q0 217 -135 367q-129 141 -299 141q-162 0 -285 -117q-154 -145 -153 -393 q0 -379 352 -573v-150h-541z" />
<glyph unicode="&#x3c0;" horiz-adv-x="1241" d="M217 0v815h-154v166h1115v-166h-150v-815h-184v815h-443v-815h-184z" />
<glyph unicode="&#x2000;" horiz-adv-x="925" />
<glyph unicode="&#x2001;" horiz-adv-x="1853" />
<glyph unicode="&#x2002;" horiz-adv-x="925" />
<glyph unicode="&#x2003;" horiz-adv-x="1853" />
<glyph unicode="&#x2004;" horiz-adv-x="616" />
<glyph unicode="&#x2005;" horiz-adv-x="462" />
<glyph unicode="&#x2006;" horiz-adv-x="307" />
<glyph unicode="&#x2007;" horiz-adv-x="307" />
<glyph unicode="&#x2008;" horiz-adv-x="231" />
<glyph unicode="&#x2009;" horiz-adv-x="370" />
<glyph unicode="&#x200a;" horiz-adv-x="102" />
<glyph unicode="&#x2010;" horiz-adv-x="514" d="M0 428v154h514v-154h-514z" />
<glyph unicode="&#x2011;" horiz-adv-x="514" d="M0 428v154h514v-154h-514z" />
<glyph unicode="&#x2012;" horiz-adv-x="514" d="M0 428v154h514v-154h-514z" />
<glyph unicode="&#x2013;" d="M88 428v154h926v-154h-926z" />
<glyph unicode="&#x2014;" horiz-adv-x="1456" d="M0 428v154h1456v-154h-1456z" />
<glyph unicode="&#x2018;" horiz-adv-x="559" d="M123 993l170 482h172l-123 -482h-219z" />
<glyph unicode="&#x2019;" horiz-adv-x="559" d="M96 993l123 482h219l-170 -482h-172z" />
<glyph unicode="&#x201a;" horiz-adv-x="559" d="M96 -262l123 481h219l-170 -481h-172z" />
<glyph unicode="&#x201c;" horiz-adv-x="931" d="M496 993l170 482h172l-123 -482h-219zM123 993l170 482h172l-123 -482h-219z" />
<glyph unicode="&#x201d;" horiz-adv-x="931" d="M469 993l121 482h221l-170 -482h-172zM96 993l123 482h219l-170 -482h-172z" />
<glyph unicode="&#x201e;" horiz-adv-x="931" d="M496 -264l120 483h222l-170 -483h-172zM123 -264l123 483h219l-170 -483h-172z" />
<glyph unicode="&#x2020;" d="M473 -418v1348h-381v145h375v400h162v-400h377v-145h-373v-1348h-160z" />
<glyph unicode="&#x2021;" d="M92 23v145h381v762h-381v145h375v400h162v-400h377v-145h-373v-762h373v-145h-377v-441h-162v441h-375z" />
<glyph unicode="&#x2022;" horiz-adv-x="1366" d="M686 410q-119 0 -202 82.5t-83 199.5q0 119 83 202t204 83q115 0 198 -84t83 -201t-83 -199.5t-200 -82.5z" />
<glyph unicode="&#x2024;" horiz-adv-x="550" d="M174 0v203h203v-203h-203z" />
<glyph unicode="&#x2025;" d="M725 0v203h203v-203h-203zM174 0v203h203v-203h-203z" />
<glyph unicode="&#x2026;" horiz-adv-x="1642" d="M1260 0v219h219v-219h-219zM711 0v219h219v-219h-219zM164 0v219h219v-219h-219z" />
<glyph unicode="&#x202f;" horiz-adv-x="370" />
<glyph unicode="&#x2030;" horiz-adv-x="2455" d="M332 -84l868 1534h129l-868 -1534h-129zM373 680q-152 0 -239 95t-87 261t86 259.5t240 93.5q156 0 238.5 -92.5t82.5 -262.5q0 -162 -88 -258t-233 -96zM371 797q80 0 125 62.5t45 172.5q0 115 -44 178.5t-122 63.5q-82 0 -128 -64.5t-46 -179.5q0 -109 45 -171t125 -62 zM1759 334q0 166 86 259t240 93q156 0 238.5 -92t82.5 -262q0 -162 -88 -258.5t-235 -96.5q-152 0 -238 95.5t-86 261.5zM969 334q0 166 86 259t239 93q156 0 239 -92t83 -262q0 -162 -88 -258.5t-236 -96.5q-152 0 -237.5 95.5t-85.5 261.5zM1913 330q0 -111 45 -173.5 t125 -62.5t125 62.5t45 173.5q0 115 -44 178t-122 63q-82 0 -128 -63t-46 -178zM1122 330q0 -111 45 -173.5t125 -62.5t125 62.5t45 173.5q0 115 -44 178t-122 63q-82 0 -128 -63t-46 -178z" />
<glyph unicode="&#x2032;" horiz-adv-x="374" d="M117 928l-31 547h203l-31 -547h-141z" />
<glyph unicode="&#x2033;" horiz-adv-x="665" d="M408 928l-33 547h205l-33 -547h-139zM117 928l-31 547h203l-31 -547h-141z" />
<glyph unicode="&#x2039;" horiz-adv-x="698" d="M391 100l-282 406l274 397h178l-254 -397l258 -406h-174z" />
<glyph unicode="&#x203a;" horiz-adv-x="698" d="M131 100l258 406l-254 397h178l275 -397l-283 -406h-174z" />
<glyph unicode="&#x2044;" horiz-adv-x="309" d="M-160 -66h-119l746 1498h121z" />
<glyph unicode="&#x205f;" horiz-adv-x="462" />
<glyph unicode="&#x2070;" horiz-adv-x="507" d="M252 809q-100 0 -153.5 76t-53.5 219q0 289 211 289q205 0 205 -297q0 -139 -53.5 -213t-155.5 -74zM254 889q104 0 104 213q0 100 -27.5 155.5t-74.5 55.5q-109 0 -109 -211q1 -213 107 -213z" />
<glyph unicode="&#x2074;" horiz-adv-x="507" d="M301 819v121h-274v74l241 368h133v-362h78v-80h-78v-121h-100zM135 1020h166v209q0 35 4 65q-35 -61 -170 -274z" />
<glyph unicode="&#x2075;" horiz-adv-x="507" d="M82 836l2 90q74 -33 129 -33q57 0 94 28.5t37 73.5q0 47 -38 76t-101 29q-51 0 -119 -23l4 301h342v-80h-248l-2 -94v-30q37 6 56 6q94 0 153.5 -50.5t59.5 -128.5q0 -86 -64.5 -137t-173.5 -51q-61 0 -131 23z" />
<glyph unicode="&#x2076;" horiz-adv-x="507" d="M262 809q-100 0 -153.5 70.5t-53.5 201.5q0 152 63.5 231t182.5 79q61 0 131 -21l-14 -86q-61 27 -113 27q-133 0 -151 -172q53 45 125 45q78 0 130 -52.5t52 -130.5q0 -84 -55.5 -138t-143.5 -54zM262 889q41 0 68.5 30.5t27.5 75.5q0 47 -27.5 78t-70.5 31t-70.5 -28.5 t-27.5 -74.5q0 -47 28.5 -79.5t71.5 -32.5z" />
<glyph unicode="&#x2077;" horiz-adv-x="507" d="M111 819l180 385l47 94h-10h-25h-250v80h391v-73l-223 -486h-110z" />
<glyph unicode="&#x2078;" horiz-adv-x="507" d="M258 809q-94 0 -154.5 46t-60.5 118q0 96 111 143q-98 39 -99 131q0 66 54.5 105t144.5 39q86 0 139 -39t53 -103q0 -76 -94 -127q113 -49 113 -149q0 -74 -57.5 -119t-149.5 -45zM270 1155l9 4q66 41 65 90q0 27 -26.5 46.5t-65.5 19.5t-66.5 -19.5t-27.5 -46.5 q-1 -51 112 -94zM260 889q45 0 73.5 22.5t28.5 57.5q0 68 -122 108q-2 -2 -4 -2q-2 -2 -5 -2l-4 -2q-78 -37 -77 -94q0 -39 31.5 -63.5t78.5 -24.5z" />
<glyph unicode="&#x2079;" horiz-adv-x="507" d="M72 831l14 89q59 -29 113 -29q129 0 151 172q-51 -45 -123 -45q-82 0 -133 52t-51 134t55.5 135.5t141.5 53.5q100 0 154.5 -70t54.5 -199q0 -313 -250 -313q-57 0 -127 20zM244 1098q43 0 70.5 28.5t27.5 73.5q0 47 -27.5 80t-68.5 33q-45 0 -73 -30t-28 -77t28 -77.5 t71 -30.5z" />
<glyph unicode="&#x2080;" horiz-adv-x="507" d="M252 -10q-100 0 -153.5 75.5t-53.5 219.5q0 287 211 286q205 0 205 -295q0 -139 -53.5 -212.5t-155.5 -73.5zM254 70q104 0 104 211q0 100 -27.5 155.5t-74.5 55.5q-109 0 -109 -211q0 -100 28 -155.5t79 -55.5z" />
<glyph unicode="&#x2081;" horiz-adv-x="507" d="M238 0v340v29v34v48l-7 -7l-14 -10l-63 -53l-60 63l154 119h90v-563h-100z" />
<glyph unicode="&#x2082;" horiz-adv-x="507" d="M55 0v94q272 217 273 314q0 35 -31 57t-78 22q-59 0 -139 -43l-12 88q94 35 165 35q90 0 145.5 -44t55.5 -113q0 -51 -29.5 -99.5t-101.5 -120.5q-66 -66 -127 -110h270v-80h-391z" />
<glyph unicode="&#x2083;" horiz-adv-x="507" d="M55 16l4 90q88 -35 150 -34q53 0 88 24.5t35 63.5q0 92 -164 92q-18 0 -35 -2v84q72 0 103 6q94 18 94 78q0 31 -32 51t-79 20q-68 0 -139 -30l-8 84q78 27 151 26q98 0 153.5 -40t55.5 -111q0 -86 -100 -125q106 -43 106 -139q0 -74 -60.5 -118t-162.5 -44 q-86 -1 -160 24z" />
<glyph unicode="&#x2084;" horiz-adv-x="507" d="M27 119v74l241 370h133v-364h78v-80h-78v-119h-100v119h-274zM135 199h166v209q0 37 4 67q-31 -55 -170 -276z" />
<glyph unicode="&#x2085;" horiz-adv-x="507" d="M82 14l2 92q74 -33 129 -32q57 0 94 28.5t37 73.5q0 47 -38 76t-101 29q-51 0 -119 -23l4 301h342v-80h-248l-2 -94v-31q37 6 56 6q94 0 153.5 -50t59.5 -128q0 -86 -64.5 -137t-173.5 -51q-57 0 -131 20z" />
<glyph unicode="&#x2086;" horiz-adv-x="507" d="M262 -10q-100 0 -153.5 70.5t-53.5 201.5q0 152 63.5 230.5t182.5 78.5q61 0 131 -20l-14 -86q-61 27 -113 27q-133 0 -151 -173q53 45 125 46q78 0 130 -52.5t52 -130.5q0 -84 -55.5 -138t-143.5 -54zM162 182q0 -47 28.5 -79.5t71.5 -32.5q41 0 68.5 30.5t27.5 75.5 q0 47 -27.5 78t-70.5 31t-70.5 -29t-27.5 -74z" />
<glyph unicode="&#x2087;" horiz-adv-x="507" d="M111 0l180 385l47 94h-10h-25h-250v80h391v-74l-223 -485h-110z" />
<glyph unicode="&#x2088;" horiz-adv-x="507" d="M43 152q0 96 111 145q-98 39 -99 129q0 66 54.5 105.5t144.5 39.5q86 0 139 -38.5t53 -102.5q0 -78 -94 -127q113 -51 113 -149q0 -74 -57.5 -119t-149.5 -45q-94 0 -154.5 45t-60.5 117zM270 334l9 4q66 41 65 92q0 27 -26.5 46.5t-65.5 19.5t-66.5 -19.5t-27.5 -46.5 q-1 -53 112 -96zM150 158q0 -39 31.5 -63.5t78.5 -24.5q45 0 73.5 22.5t28.5 57.5q0 63 -122 108l-4 -4h-5l-4 -4q-77 -35 -77 -92z" />
<glyph unicode="&#x2089;" horiz-adv-x="507" d="M72 10l14 88q59 -29 113 -28q129 0 151 172q-51 -43 -123 -43q-82 0 -133 52t-51 134t55.5 135t141.5 53q100 0 154.5 -69.5t54.5 -200.5q0 -313 -250 -313q-47 0 -127 20zM244 279q43 0 70.5 28.5t27.5 73.5q0 47 -27.5 80t-68.5 33q-45 0 -73 -30t-28 -77t28 -77.5 t71 -30.5z" />
<glyph unicode="&#x20ac;" horiz-adv-x="1339" d="M86 547l35 108h98v68h-133l35 108h110q51 274 216 418t430 144q219 0 376 -101l-61 -190q-123 137 -313 137q-168 0 -286 -109.5t-153 -298.5h666l-35 -108h-643v-68h621l-35 -108h-574q35 -197 152 -308.5t287 -111.5q186 0 315 141v-229q-141 -66 -315 -66 q-264 0 -434.5 150.5t-215.5 423.5h-143z" />
<glyph unicode="&#x2113;" horiz-adv-x="1024" d="M301 172q0 53 14 227q-76 -72 -92 -71q-10 0 -20 11t-10 26q0 20 38 57q43 43 101 108q84 440 183 649.5t224 209.5q63 0 100.5 -47.5t37.5 -124.5q0 -172 -129 -388q-70 -113 -230 -280q-49 -252 -57 -303t-8 -106.5t34 -55.5q51 0 101 106q16 39 39 39q31 0 30 -34 q0 -57 -61 -136q-74 -88 -154 -88q-68 0 -104.5 52.5t-36.5 148.5zM543 696q111 121 176 258.5t65 247.5q0 90 -45 90q-20 0 -41.5 -24.5t-35.5 -63.5q-56 -158 -119 -508z" />
<glyph unicode="&#x2117;" horiz-adv-x="1607" d="M98 682q0 299 208 505t509 206q285 0 489.5 -209t204.5 -500q0 -295 -205.5 -503t-498.5 -208q-291 0 -499 209t-208 500zM209 682q0 -250 175 -429t421 -179t420 178t174 430q0 250 -173 430t-413 180q-254 0 -429 -177t-175 -433zM578 293v780h204q125 0 188.5 -20.5 t102.5 -72.5t39 -118q0 -92 -72.5 -160.5t-257.5 -68.5h-71v-340h-133zM711 743h65q106 0 152.5 26t46.5 85q0 57 -44 83t-145 26h-75v-220z" />
<glyph unicode="&#x2122;" horiz-adv-x="1763" d="M748 588v780h206l164 -389l56 -133q18 -45 34 -96q39 117 88 231l160 387h209v-780h-133v444l2 228q-51 -156 -111 -295l-157 -377h-123l-158 377q-55 131 -113 284q8 -119 9 -225v-436h-133zM262 588v669h-262v111h651v-111h-256v-669h-133z" />
<glyph unicode="&#x2126;" horiz-adv-x="1366" d="M59 0v166h340q-176 106 -258 246.5t-82 335.5q0 276 179.5 463.5t445.5 187.5t445.5 -187.5t179.5 -466.5q0 -195 -83 -335t-257 -244h340v-166h-541v150q137 78 209 161q143 172 143 414q0 217 -135 367q-129 141 -299 141q-162 0 -285 -117q-154 -145 -153 -393 q0 -379 352 -573v-150h-541z" />
<glyph unicode="&#x212e;" horiz-adv-x="1789" d="M328 166q-229 199 -230 514q0 322 230 514q236 195 579.5 195t567.5 -205q217 -203 217 -541h-1260v-377q178 -211 479 -211q295 0 469 211h205q-229 -293 -690 -293q-336 0 -567 193zM432 731h942v350q-168 223 -477 224q-307 0 -465 -224v-350z" />
<glyph unicode="&#x2153;" horiz-adv-x="1765" d="M449 -66l745 1498h121l-748 -1498h-118zM334 543v495v140l-103 -91l-84 103l207 176h125v-823h-145zM1130 27l9 143q119 -51 200 -51q68 0 111 32.5t43 86.5q0 123 -207 122h-53v134q20 -2 45 -2q213 0 213 114q0 45 -38 73t-99 28q-82 0 -191 -52l-10 138q106 39 209 38 q131 0 204.5 -59t73.5 -166q0 -119 -122 -178q131 -68 131 -201q0 -109 -82 -173t-219 -64q-107 0 -218 37z" />
<glyph unicode="&#x2154;" horiz-adv-x="1765" d="M449 -66l745 1498h121l-748 -1498h-118zM96 543v145q186 166 270.5 271.5t84.5 179.5q0 47 -38 76.5t-96 29.5q-82 0 -188 -67l-16 145q131 53 223 53q119 0 194.5 -65.5t75.5 -167.5q0 -188 -325 -471h22h320v-129h-527zM1130 27l9 143q119 -51 200 -51q68 0 111 32.5 t43 86.5q0 123 -207 122h-53v134q20 -2 45 -2q213 0 213 114q0 45 -38 73t-99 28q-82 0 -191 -52l-10 138q106 39 209 38q131 0 204.5 -59t73.5 -166q0 -119 -122 -178q131 -68 131 -201q0 -109 -82 -173t-219 -64q-107 0 -218 37z" />
<glyph unicode="&#x215b;" horiz-adv-x="1765" d="M449 -66l745 1498h121l-748 -1498h-118zM334 543v495v140l-103 -91l-84 103l207 176h125v-823h-145zM1116 225q0 137 135 209q-119 66 -118 187q0 96 73.5 154.5t192.5 58.5q115 0 186.5 -58.5t71.5 -150.5q0 -111 -117 -183q143 -70 143 -215q0 -109 -76.5 -175 t-201.5 -66q-127 0 -208 66.5t-81 172.5zM1282 625q0 -70 137 -129q88 59 88 129q0 37 -32.5 62.5t-79.5 25.5q-45 0 -79 -26.5t-34 -61.5zM1270 233q0 -51 39 -84.5t98 -33.5q55 0 91 29.5t36 76.5q0 88 -152 148q-112 -58 -112 -136z" />
<glyph unicode="&#x215c;" horiz-adv-x="1765" d="M449 -66l745 1498h121l-748 -1498h-118zM94 571l8 144q121 -53 201 -53q68 0 111 33.5t43 86.5q0 125 -205 125q-25 0 -55 -4v133h45q213 0 213 115q0 45 -38 72.5t-98 27.5q-84 0 -192 -51l-10 137q111 39 209 39q131 0 204.5 -59.5t73.5 -165.5q0 -119 -123 -178 q131 -68 131 -201q0 -109 -81.5 -174.5t-219.5 -65.5q-106 0 -217 39zM1116 225q0 135 133 209q-117 70 -116 187q0 96 73.5 154.5t192.5 58.5q115 0 186.5 -58.5t71.5 -150.5q0 -111 -117 -183q141 -70 141 -215q0 -109 -76.5 -175t-201.5 -66q-127 0 -207 66.5t-80 172.5z M1282 625q0 -68 137 -129q88 59 88 129q0 37 -32.5 62.5t-79.5 25.5q-45 0 -79 -26.5t-34 -61.5zM1270 233q0 -51 38 -84.5t97 -33.5q57 0 92 29.5t35 76.5q0 90 -152 148q-110 -58 -110 -136z" />
<glyph unicode="&#x215d;" horiz-adv-x="1765" d="M449 -66l745 1498h121l-748 -1498h-118zM131 567l4 146q102 -51 174 -51t118 38.5t46 102.5q0 66 -47 104.5t-127 38.5q-70 0 -164 -35l6 451h463v-129h-323l-2 -129l-3 -35q47 6 66 6q127 0 207 -73.5t80 -190.5q0 -125 -87 -199.5t-233 -74.5q-88 -1 -178 30zM1116 225 q0 137 135 209q-119 66 -118 187q0 96 73.5 154.5t192.5 58.5q115 0 187.5 -58.5t72.5 -150.5q0 -111 -117 -183q141 -70 141 -215q0 -109 -76.5 -175t-201.5 -66q-127 0 -208 66.5t-81 172.5zM1282 625q0 -70 139 -129q88 59 88 129q0 37 -32.5 62.5t-79.5 25.5t-81 -26.5 t-34 -61.5zM1270 233q0 -51 39 -84.5t98 -33.5q55 0 91 29.5t36 76.5q0 90 -152 148q-6 -2 -10 -4l-4 -5q-98 -49 -98 -127z" />
<glyph unicode="&#x215e;" horiz-adv-x="1765" d="M451 -66l745 1498h121l-750 -1498h-116zM166 543l240 561l57 127h-33h-336v131h527v-117l-295 -702h-160zM1116 225q0 137 135 209q-119 66 -118 187q0 96 73.5 154.5t192.5 58.5q115 0 187.5 -58.5t72.5 -150.5q0 -111 -117 -183q141 -70 141 -215q0 -109 -76.5 -175 t-201.5 -66q-127 0 -208 66.5t-81 172.5zM1282 625q0 -68 139 -129q88 55 88 129q0 37 -32.5 62.5t-79.5 25.5t-81 -26.5t-34 -61.5zM1270 233q0 -51 39 -84.5t98 -33.5q55 0 91 29.5t36 76.5q0 90 -152 148q-112 -58 -112 -136z" />
<glyph unicode="&#x21e7;" horiz-adv-x="1906" d="M559 0v682h-401l796 795l795 -795h-401v-682h-789zM694 135h518v668h226l-484 483l-485 -483h225v-668z" />
<glyph unicode="&#x2202;" horiz-adv-x="1024" d="M53 442q0 186 124 316.5t302 130.5q90 0 154.5 -30t130.5 -103q-53 129 -98 190.5t-136 122.5q-170 115 -370 139l24 162q182 -25 303 -75t222 -142q125 -115 192.5 -280.5t67.5 -356.5q0 -205 -88 -338q-61 -94 -158.5 -146t-210.5 -52q-188 0 -323.5 136t-135.5 326z M240 434q0 -131 78.5 -223t191.5 -92t191.5 94t78.5 231q0 131 -74.5 219.5t-187.5 88.5q-119 0 -198.5 -92.5t-79.5 -225.5z" />
<glyph unicode="&#x2206;" horiz-adv-x="1366" d="M49 0l531 1366h198l537 -1366h-1266zM313 172h736l-369 969z" />
<glyph unicode="&#x220f;" horiz-adv-x="1452" d="M78 -324h164v1704h-164v172h1298v-172h-166v-1704h166v-172h-516v172h166v1704h-600v-1704h166v-172h-514v172z" />
<glyph unicode="&#x2211;" horiz-adv-x="1366" d="M53 -303l506 870l-506 797v188h1186v-481h-166l-18 309h-795l516 -813l-516 -891h813l10 308h174v-480h-1204v193z" />
<glyph unicode="&#x2212;" d="M80 623v149h942v-149h-942z" />
<glyph unicode="&#x221a;" horiz-adv-x="1366" d="M330 0l-152 594h-178v172h328l65 -238q12 -39 49 -288h15q57 322 149 669l209 791h551v-172h-391l-410 -1528h-235z" />
<glyph unicode="&#x221e;" horiz-adv-x="1366" d="M354 377q-139 0 -228 90t-89 233q0 139 90 228.5t229 89.5q182 0 324 -197q139 197 332 197q139 0 228 -90t89 -232q0 -139 -89 -229t-226 -90q-188 0 -326 198q-148 -198 -334 -198zM774 698q102 -164 217 -163q66 0 111 47t45 116.5t-45 115.5t-113 46 q-59 0 -108.5 -37t-106.5 -125zM377 532q59 0 108.5 38t106.5 126q-102 164 -215 164q-68 0 -113 -47t-45 -116.5t45 -117t113 -47.5z" />
<glyph unicode="&#x222b;" horiz-adv-x="1024" d="M203 -313q61 -18 100 -19q98 0 113 99q4 27 4 153v1178q0 215 18 282q23 80 94.5 126t172.5 46q63 0 153 -20l-37 -164q-57 18 -98 18q-102 0 -115 -98q-4 -25 -4 -244v-1089q0 -178 -9 -238.5t-42 -107.5q-74 -104 -248 -105q-78 0 -139 19z" />
<glyph unicode="&#x2248;" horiz-adv-x="1024" d="M125 713l-107 69q61 135 128 192.5t163 57.5q76 0 223 -65q143 -61 193 -62q55 0 92 28t82 103l109 -63q-61 -125 -125 -178q-86 -66 -183 -66q-61 0 -288 96q-68 29 -119 29t-90 -32.5t-78 -108.5zM125 348l-107 68q61 137 128 194.5t163 57.5q72 0 223 -66 q137 -61 192.5 -61t91.5 27.5t83 103.5l109 -64q-61 -125 -125 -178q-82 -66 -183 -65q-72 0 -288 94q-72 31 -119 30q-51 0 -90 -32.5t-78 -108.5z" />
<glyph unicode="&#x2260;" d="M289 315l78 164h-287v150h356l64 137h-420v149h489l107 228l137 -64l-78 -164h287v-149h-356l-64 -137h420v-150h-490l-106 -227z" />
<glyph unicode="&#x2264;" horiz-adv-x="1024" d="M68 719v158l886 409v-176l-690 -309l690 -309v-177zM68 84v172h886v-172h-886z" />
<glyph unicode="&#x2265;" horiz-adv-x="1024" d="M68 315v177l690 309l-690 309v176l886 -409v-158zM68 84v172h886v-172h-886z" />
<glyph unicode="&#x2303;" horiz-adv-x="1753" d="M397 627l-131 131l611 608l608 -608l-131 -131l-477 477z" />
<glyph unicode="&#x2318;" horiz-adv-x="1724" d="M156 291q0 127 92 220t223 93h176v158h-176q-131 0 -223 92t-92 221t92 221.5t223 92.5q127 0 220 -93.5t93 -220.5v-178h156v178q0 129 93 221.5t222 92.5t220.5 -92.5t91.5 -221.5t-91.5 -221t-220.5 -92h-178v-158h178q129 0 220.5 -92t91.5 -221t-91.5 -221.5 t-220.5 -92.5q-133 0 -224 92.5t-91 221.5v178h-156v-178q0 -129 -91 -221.5t-222 -92.5q-133 0 -224 92.5t-91 221.5zM1077 897h178q74 0 125.5 53.5t51.5 125t-52.5 124.5t-124.5 53q-74 0 -126 -52t-52 -126v-178zM471 897h176v178q0 74 -51 126t-125 52t-126 -52 t-52 -126q0 -76 51 -127t127 -51zM784 604h156v158h-156v-158zM1077 291q0 -72 52.5 -125t126 -53t125 52t51.5 126t-52.5 126t-124.5 52h-178v-178zM293 291q0 -72 52 -125t126 -53t125 53t51 125v178h-176q-76 0 -127 -51t-51 -127z" />
<glyph unicode="&#x2325;" horiz-adv-x="1873" d="M1071 1217v149h647v-149h-647zM1178 0l-600 1217h-422v149h542l600 -1214h420v-152h-540z" />
<glyph unicode="&#x2460;" horiz-adv-x="1679" d="M90 725q0 311 219 530.5t530.5 219.5t530.5 -219.5t219 -530.5t-219 -530.5t-530.5 -219.5t-530.5 219.5t-219 530.5zM197 725q0 -270 188 -461.5t454.5 -191.5t455 191.5t188.5 461.5t-188.5 461.5t-455 191.5t-454.5 -191.5t-188 -461.5zM799 291v708l-97 -118l-51 92 l187 188h104v-870h-143z" />
<glyph unicode="&#x2461;" horiz-adv-x="1679" d="M90 725q0 311 219 530.5t530.5 219.5t530.5 -219.5t219 -530.5t-219 -530.5t-530.5 -219.5t-530.5 219.5t-219 530.5zM197 725q0 -270 188 -461.5t454.5 -191.5t455 191.5t188.5 461.5t-188.5 461.5t-455 191.5t-454.5 -191.5t-188 -461.5zM623 291v133q20 31 105 141.5 t127 194.5t42 170q0 57 -24.5 94t-63.5 37q-47 0 -93 -22.5t-65 -41.5q-2 45 -10 121q72 57 190 58q98 0 155.5 -68t57.5 -182q0 -88 -28.5 -166t-63.5 -125l-85 -115q-50 -68 -76 -117h270v-112h-438z" />
<glyph unicode="&#x2462;" horiz-adv-x="1679" d="M90 725q0 311 219 530.5t530.5 219.5t530.5 -219.5t219 -530.5t-219 -530.5t-530.5 -219.5t-530.5 219.5t-219 530.5zM197 725q0 -270 188 -461.5t454.5 -191.5t455 191.5t188.5 461.5t-188.5 461.5t-455 191.5t-454.5 -191.5t-188 -461.5zM639 309l4 123q57 -41 133 -41 q66 0 105 38t39 101q0 154 -140 154h-53v115h43q66 0 107 33.5t41 101.5q0 57 -31 92t-84 35q-74 0 -135 -47l-6 119q59 43 157 43q113 0 178.5 -62.5t65.5 -169.5q0 -76 -39 -130t-102 -73q145 -39 145 -217q0 -117 -72.5 -182.5t-201.5 -65.5q-88 0 -154 33z" />
<glyph unicode="&#x2463;" horiz-adv-x="1679" d="M90 725q0 311 219 530.5t530.5 219.5t530.5 -219.5t219 -530.5t-219 -530.5t-530.5 -219.5t-530.5 219.5t-219 530.5zM197 725q0 -270 188 -461.5t454.5 -191.5t455 191.5t188.5 461.5t-188.5 461.5t-455 191.5t-454.5 -191.5t-188 -461.5zM571 481v119l228 561h186v-567 h90v-113h-90v-190h-137v190h-277zM711 594h137v383z" />
<glyph unicode="&#x2464;" horiz-adv-x="1679" d="M90 725q0 311 219 530.5t530.5 219.5t530.5 -219.5t219 -530.5t-219 -530.5t-530.5 -219.5t-530.5 219.5t-219 530.5zM197 725q0 -270 188 -461.5t454.5 -191.5t455 191.5t188.5 461.5t-188.5 461.5t-455 191.5t-454.5 -191.5t-188 -461.5zM639 313l8 133q74 -41 150 -40 q70 0 109.5 47t39.5 122q0 70 -41 116t-119 46q-63 0 -133 -28v452h402v-123h-275v-198q35 10 90 10q94 0 158 -71.5t64 -196.5q0 -143 -73 -223t-198 -80q-82 -1 -182 34z" />
<glyph unicode="&#x2465;" horiz-adv-x="1679" d="M90 725q0 311 219 530.5t530.5 219.5t530.5 -219.5t219 -530.5t-219 -530.5t-530.5 -219.5t-530.5 219.5t-219 530.5zM197 725q0 -270 188 -461.5t454.5 -191.5t455 191.5t188.5 461.5t-188.5 461.5t-455 191.5t-454.5 -191.5t-188 -461.5zM823 276q-225 0 -225 416 q0 231 72.5 357.5t208.5 126.5q66 0 139 -29q-14 -90 -17 -121q-59 35 -106 35q-154 0 -164 -295q39 80 109 80q98 0 153.5 -75t55.5 -208q0 -131 -62 -209t-164 -78zM823 389q35 0 57.5 49t22.5 123q0 78 -21.5 124t-58.5 46q-80 0 -80 -205q0 -49 21.5 -93t58.5 -44z" />
<glyph unicode="&#x2466;" horiz-adv-x="1679" d="M90 725q0 311 219 530.5t530.5 219.5t530.5 -219.5t219 -530.5t-219 -530.5t-530.5 -219.5t-530.5 219.5t-219 530.5zM197 725q0 -270 188 -461.5t454.5 -191.5t455 191.5t188.5 461.5t-188.5 461.5t-455 191.5t-454.5 -191.5t-188 -461.5zM672 291l246 756h-291v114h434 v-117l-234 -753h-155z" />
<glyph unicode="&#x2467;" horiz-adv-x="1679" d="M90 725q0 311 219 530.5t530.5 219.5t530.5 -219.5t219 -530.5t-219 -530.5t-530.5 -219.5t-530.5 219.5t-219 530.5zM197 725q0 -270 188 -461.5t454.5 -191.5t455 191.5t188.5 461.5t-188.5 461.5t-455 191.5t-454.5 -191.5t-188 -461.5zM604 514q0 158 139 229 q-139 76 -139 213q0 100 64.5 160t173.5 60q100 0 164.5 -57.5t64.5 -149.5q0 -68 -39 -127.5t-100 -87.5q143 -74 143 -236q0 -111 -64.5 -176.5t-170.5 -65.5q-104 0 -170 66t-66 172zM850 799q27 18 51.5 60t24.5 93q0 49 -24.5 80t-65.5 31q-37 0 -65 -34t-28 -81 q1 -83 107 -149zM750 520q0 -55 27.5 -93t66.5 -38q37 0 60.5 36t23.5 93q0 106 -101 168q-77 -66 -77 -166z" />
<glyph unicode="&#x2468;" horiz-adv-x="1679" d="M90 725q0 311 219 530.5t530.5 219.5t530.5 -219.5t219 -530.5t-219 -530.5t-530.5 -219.5t-530.5 219.5t-219 530.5zM197 725q0 -270 188 -461.5t454.5 -191.5t455 191.5t188.5 461.5t-188.5 461.5t-455 191.5t-454.5 -191.5t-188 -461.5zM655 303q10 111 15 121 q55 -33 106 -33q59 0 97 52.5t51.5 113.5t13.5 127q-14 -35 -44 -57.5t-63 -22.5q-98 0 -153 75t-55 208q0 131 61 210t162 79q227 0 227 -416q0 -231 -73.5 -357.5t-206.5 -126.5q-75 0 -138 27zM846 719q82 0 82 186q0 63 -20.5 110.5t-61.5 47.5q-33 0 -55.5 -49 t-22.5 -125q0 -170 78 -170z" />
<glyph unicode="&#x2469;" horiz-adv-x="1679" d="M90 725q0 311 219 530.5t530.5 219.5t530.5 -219.5t219 -530.5t-219 -530.5t-530.5 -219.5t-530.5 219.5t-219 530.5zM197 725q0 -270 188 -461.5t454.5 -191.5t455 191.5t188.5 461.5t-188.5 461.5t-455 191.5t-454.5 -191.5t-188 -461.5zM1034.5 276q-114.5 0 -173 118 t-58.5 333t58.5 332t173 117t173 -119t58.5 -334t-58.5 -331t-173 -116zM528 291v708l-96 -118l-51 92l186 188h105v-870h-144zM1034 389q86 0 86 338q0 336 -86 336t-86 -340q0 -334 86 -334z" />
<glyph unicode="&#x246a;" horiz-adv-x="1679" d="M90 725q0 311 219 530.5t530.5 219.5t530.5 -219.5t219 -530.5t-219 -530.5t-530.5 -219.5t-530.5 219.5t-219 530.5zM197 725q0 -270 188 -461.5t454.5 -191.5t455 191.5t188.5 461.5t-188.5 461.5t-455 191.5t-454.5 -191.5t-188 -461.5zM993 291v708l-96 -118l-51 92 l186 188h105v-870h-144zM569 291v708l-96 -118l-51 92l186 188h105v-870h-144z" />
<glyph unicode="&#x246b;" horiz-adv-x="1679" d="M90 725q0 311 219 530.5t530.5 219.5t530.5 -219.5t219 -530.5t-219 -530.5t-530.5 -219.5t-530.5 219.5t-219 530.5zM197 725q0 -270 188 -461.5t454.5 -191.5t455 191.5t188.5 461.5t-188.5 461.5t-455 191.5t-454.5 -191.5t-188 -461.5zM811 291v133q20 31 105 141.5 t127 194.5t42 170q0 57 -24.5 94t-63.5 37q-47 0 -93 -22.5t-64 -41.5q-2 45 -11 121q72 57 191 58q98 0 155.5 -68t57.5 -182q0 -88 -28.5 -166t-63.5 -125l-85 -115q-50 -68 -77 -117h270v-112h-438zM524 291v708l-96 -118l-51 92l186 188h105v-870h-144z" />
<glyph unicode="&#x246c;" horiz-adv-x="1679" d="M90 725q0 311 219 530.5t530.5 219.5t530.5 -219.5t219 -530.5t-219 -530.5t-530.5 -219.5t-530.5 219.5t-219 530.5zM197 725q0 -270 188 -461.5t454.5 -191.5t455 191.5t188.5 461.5t-188.5 461.5t-455 191.5t-454.5 -191.5t-188 -461.5zM805 309l4 123q57 -41 133 -41 q66 0 104.5 38t38.5 101q0 154 -139 154h-53v115h43q66 0 106.5 33.5t40.5 101.5q0 57 -30.5 92t-83.5 35q-74 0 -135 -47l-7 119q59 43 158 43q113 0 178.5 -62.5t65.5 -169.5q0 -76 -39 -130t-103 -73q145 -39 146 -217q0 -117 -73 -182.5t-202 -65.5q-87 0 -153 33z M539 291v708l-97 -118l-51 92l187 188h104v-870h-143z" />
<glyph unicode="&#x246d;" horiz-adv-x="1679" d="M90 725q0 311 219 530.5t530.5 219.5t530.5 -219.5t219 -530.5t-219 -530.5t-530.5 -219.5t-530.5 219.5t-219 530.5zM197 725q0 -270 188 -461.5t454.5 -191.5t455 191.5t188.5 461.5t-188.5 461.5t-455 191.5t-454.5 -191.5t-188 -461.5zM764 481v119l225 561h189v-567 h88v-113h-88v-190h-138v190h-276zM518 291v708l-96 -118l-51 92l186 188h105v-870h-144zM903 594h137v383z" />
<glyph unicode="&#x246e;" horiz-adv-x="1679" d="M90 725q0 311 219 530.5t530.5 219.5t530.5 -219.5t219 -530.5t-219 -530.5t-530.5 -219.5t-530.5 219.5t-219 530.5zM197 725q0 -270 188 -461.5t454.5 -191.5t455 191.5t188.5 461.5t-188.5 461.5t-455 191.5t-454.5 -191.5t-188 -461.5zM801 313l8 133q74 -41 149 -40 q70 0 110 47t40 122q0 70 -41 116t-119 46q-63 0 -133 -28v452h402v-123h-275v-198q35 10 90 10q94 0 157.5 -71.5t63.5 -196.5q0 -143 -72.5 -223t-197.5 -80q-82 -1 -182 34zM520 291v708l-96 -118l-51 92l186 188h105v-870h-144z" />
<glyph unicode="&#x246f;" horiz-adv-x="1679" d="M90 725q0 311 219 530.5t530.5 219.5t530.5 -219.5t219 -530.5t-219 -530.5t-530.5 -219.5t-530.5 219.5t-219 530.5zM197 725q0 -270 188 -461.5t454.5 -191.5t455 191.5t188.5 461.5t-188.5 461.5t-455 191.5t-454.5 -191.5t-188 -461.5zM793 692q0 231 72.5 357.5 t207.5 126.5q66 0 139 -29q-14 -90 -16 -121q-59 35 -106 35q-154 0 -164 -295q39 80 108 80q98 0 153.5 -75t55.5 -208q0 -131 -61.5 -209t-163.5 -78q-225 0 -225 416zM508 291v708l-96 -118l-52 92l187 188h104v-870h-143zM938 526q0 -49 21.5 -93t58.5 -44q35 0 57.5 49 t22.5 123q0 78 -21.5 124t-58.5 46q-80 0 -80 -205z" />
<glyph unicode="&#x2470;" horiz-adv-x="1679" d="M90 725q0 311 219 530.5t530.5 219.5t530.5 -219.5t219 -530.5t-219 -530.5t-530.5 -219.5t-530.5 219.5t-219 530.5zM197 725q0 -270 188 -461.5t454.5 -191.5t455 191.5t188.5 461.5t-188.5 461.5t-455 191.5t-454.5 -191.5t-188 -461.5zM852 291l248 756h-291v114h432 v-117l-231 -753h-158zM539 291v708l-97 -118l-51 92l187 188h104v-870h-143z" />
<glyph unicode="&#x2471;" horiz-adv-x="1679" d="M90 725q0 311 219 530.5t530.5 219.5t530.5 -219.5t219 -530.5t-219 -530.5t-530.5 -219.5t-530.5 219.5t-219 530.5zM197 725q0 -270 188 -461.5t454.5 -191.5t455 191.5t188.5 461.5t-188.5 461.5t-455 191.5t-454.5 -191.5t-188 -461.5zM778 514q0 160 140 229 q-139 76 -140 213q0 100 64.5 160t173.5 60q100 0 164.5 -57.5t64.5 -149.5q0 -66 -40 -126.5t-99 -88.5q141 -72 141 -236q0 -111 -64.5 -176.5t-170.5 -65.5q-102 0 -168 66t-66 172zM504 291v708l-96 -118l-52 92l187 188h104v-870h-143zM1024 799q27 18 51.5 60t24.5 93 q0 49 -24.5 80t-65.5 31q-39 0 -67 -34t-28 -81q0 -81 109 -149zM924 520q0 -55 26.5 -93t65.5 -38t62.5 36t23.5 93q0 104 -101 168q-77 -66 -77 -166z" />
<glyph unicode="&#x2472;" horiz-adv-x="1679" d="M90 725q0 311 219 530.5t530.5 219.5t530.5 -219.5t219 -530.5t-219 -530.5t-530.5 -219.5t-530.5 219.5t-219 530.5zM197 725q0 -270 188 -461.5t454.5 -191.5t455 191.5t188.5 461.5t-188.5 461.5t-455 191.5t-454.5 -191.5t-188 -461.5zM838 303q10 111 14 121 q55 -33 106 -33q59 0 97.5 52.5t51.5 113.5t13 127q-14 -35 -43.5 -57.5t-62.5 -22.5q-98 0 -153.5 75t-55.5 208q0 131 61.5 210t161.5 79q227 0 227 -416q0 -231 -73.5 -357.5t-206.5 -126.5q-74 0 -137 27zM535 291v708l-97 -118l-51 92l186 188h105v-870h-143zM1028 719 q82 0 82 186q0 63 -20.5 110.5t-61.5 47.5q-33 0 -55.5 -49t-22.5 -125q0 -170 78 -170z" />
<glyph unicode="&#x2473;" horiz-adv-x="1679" d="M90 725q0 311 219 530.5t530.5 219.5t530.5 -219.5t219 -530.5t-219 -530.5t-530.5 -219.5t-530.5 219.5t-219 530.5zM197 725q0 -270 188 -461.5t454.5 -191.5t455 191.5t188.5 461.5t-188.5 461.5t-455 191.5t-454.5 -191.5t-188 -461.5zM866 727q0 215 58.5 332 t173 117t173 -119t58.5 -334t-58.5 -331t-173 -116t-173 118t-58.5 333zM381 291v133q158 215 182 256q92 145 92 250q0 57 -24.5 94t-63.5 37q-47 0 -93 -22.5t-64 -41.5q-2 45 -11 121q72 57 191 58q98 0 155.5 -68t57.5 -182q0 -141 -123 -336q-66 -100 -131 -187h270 v-112h-438zM1098 389q86 0 86 338q0 336 -86 336t-86 -340q0 -334 86 -334z" />
<glyph unicode="&#x25ca;" horiz-adv-x="1366" d="M684 -53l-532 735l532 737l530 -737zM684 129l403 553l-403 555l-403 -555z" />
<glyph unicode="&#xe000;" horiz-adv-x="1000" d="M0 1000h1000v-1000h-1000v1000z" />
<glyph unicode="&#xe103;" horiz-adv-x="1234" d="M242 0v856h-236v145h236v43q0 211 53 299q80 137 270 138q63 0 135 -17v-153q-66 12 -94 12q-129 0 -162 -102q-16 -59 -16 -174v-46h272v-145h-272v-856h-186zM895 1241v205h203v-205h-203zM907 0v1001h187v-1001h-187z" />
<glyph unicode="&#xe104;" horiz-adv-x="1234" d="M242 0v856h-236v145h236v43q0 211 53 299q80 137 270 138q63 0 135 -17v-153q-66 12 -94 12q-129 0 -162 -102q-16 -59 -16 -174v-46h272v-145h-272v-856h-186zM907 0v1475h187v-1475h-187z" />
<glyph unicode="&#xe105;" horiz-adv-x="727" d="M334 543v495v140l-103 -91l-84 103l207 176h125v-823h-145z" />
<glyph unicode="&#xe107;" horiz-adv-x="727" d="M96 543v145q186 166 270.5 271.5t84.5 179.5q0 47 -38 76.5t-96 29.5q-82 0 -188 -67l-16 145q131 53 223 53q119 0 194.5 -65.5t75.5 -167.5q0 -188 -325 -471h22h320v-129h-527z" />
<glyph unicode="&#xe108;" horiz-adv-x="727" d="M94 571l8 144q121 -53 201 -53q68 0 111 33.5t43 86.5q0 125 -205 125q-25 0 -55 -4v133h45q213 0 213 115q0 45 -38 72.5t-98 27.5q-84 0 -192 -51l-10 137q111 39 209 39q131 0 204.5 -59.5t73.5 -165.5q0 -119 -123 -178q131 -68 131 -201q0 -109 -81.5 -174.5 t-219.5 -65.5q-106 0 -217 39z" />
<glyph unicode="&#xec73;" horiz-adv-x="507" d="M240 819v340v29v35v47l-7 -6l-14 -11l-63 -53l-60 64l154 118h90v-563h-100zM0 641v82h508v-82h-508zM55 0v94q272 217 273 314q0 35 -31 57t-78 22q-59 0 -139 -43l-12 88q94 35 165 35q90 0 145.5 -44t55.5 -113q0 -51 -29.5 -99.5t-101.5 -120.5q-66 -66 -127 -110h31 h239v-80h-391z" />
<glyph unicode="&#xec74;" horiz-adv-x="507" d="M240 819v340v29v35v47l-7 -6l-14 -11l-63 -53l-60 64l154 118h90v-563h-100zM0 641v82h508v-82h-508zM55 16l4 90q88 -35 150 -34q53 0 88 24.5t35 63.5q0 92 -164 92q-18 0 -35 -2v84q72 0 103 6q94 18 94 78q0 31 -32 51t-79 20q-68 0 -139 -30l-8 84q78 27 151 26 q98 0 153.5 -40t55.5 -111q0 -86 -100 -125q106 -43 106 -139q0 -74 -60.5 -118t-162.5 -44q-84 -1 -160 24z" />
<glyph unicode="&#xec75;" horiz-adv-x="507" d="M55 819v94q272 217 273 316q0 35 -31 57.5t-78 22.5q-61 0 -139 -45l-12 90q90 35 165 35q90 0 145.5 -44.5t55.5 -115.5q0 -88 -131 -219q-53 -53 -127 -111h31h239v-80h-391zM0 641v82h508v-82h-508zM55 16l4 90q88 -35 150 -34q53 0 88 24.5t35 63.5q0 92 -164 92 q-18 0 -35 -2v84q72 0 103 6q94 18 94 78q0 31 -32 51t-79 20q-68 0 -139 -30l-8 84q78 27 151 26q98 0 153.5 -40t55.5 -111q0 -86 -100 -125q106 -43 106 -139q0 -74 -60.5 -118t-162.5 -44q-84 -1 -160 24z" />
<glyph unicode="&#xec76;" horiz-adv-x="507" d="M240 819v340v29v35v47l-7 -6l-14 -11l-63 -53l-60 64l154 118h90v-563h-100zM0 641v82h508v-82h-508zM27 119v74l241 370h133v-364h78v-80h-78v-119h-100v119h-274zM135 199h166v209q0 37 4 67q-31 -55 -170 -276z" />
<glyph unicode="&#xec77;" horiz-adv-x="507" d="M55 838l4 90q88 -35 150 -35q53 0 88 24.5t35 63.5q0 90 -164 90h-35v82h31q166 0 166 84q0 33 -32 53.5t-79 20.5q-61 0 -139 -33l-8 86q80 27 151 27q98 0 153.5 -40t55.5 -112q0 -86 -100 -127q106 -43 106 -137q0 -74 -60.5 -118t-162.5 -44q-84 0 -160 25zM0 641v82 h508v-82h-508zM27 119v74l241 370h133v-364h78v-80h-78v-119h-100v119h-274zM135 199h166v209q0 37 4 67q-31 -55 -170 -276z" />
<glyph unicode="&#xec7c;" horiz-adv-x="507" d="M240 819v340v29v35v47l-7 -6l-14 -11l-63 -53l-60 64l154 118h90v-563h-100zM0 641v82h508v-82h-508zM43 152q0 96 109 145q-96 39 -97 129q0 66 53.5 105.5t143.5 39.5q86 0 139 -38.5t53 -102.5q0 -80 -94 -127q115 -51 115 -149q0 -74 -57.5 -119t-149.5 -45 q-94 0 -154.5 45t-60.5 117zM270 334q4 2 6 4q66 41 66 92q0 27 -26.5 46.5t-65.5 19.5t-65.5 -19.5t-26.5 -46.5q-1 -53 112 -96zM150 158q0 -39 31.5 -63.5t78.5 -24.5q45 0 73.5 22.5t28.5 57.5q0 68 -122 108l-4 -4h-5l-6 -4q-75 -33 -75 -92z" />
<glyph unicode="&#xec7d;" horiz-adv-x="507" d="M55 838l4 90q88 -35 150 -35q53 0 88 24.5t35 63.5q0 90 -164 90h-35v82h31q166 0 166 84q0 33 -32 53.5t-79 20.5q-61 0 -139 -33l-8 86q80 27 151 27q98 0 153.5 -40t55.5 -112q0 -86 -100 -127q106 -43 106 -137q0 -74 -60.5 -118t-162.5 -44q-84 0 -160 25zM0 641v82 h508v-82h-508zM43 152q0 96 109 145q-96 39 -97 129q0 66 53.5 105.5t143.5 39.5q86 0 139 -38.5t53 -102.5q0 -80 -94 -127q115 -51 115 -149q0 -74 -57.5 -119t-149.5 -45q-94 0 -154.5 45t-60.5 117zM270 334q4 2 6 4q66 41 66 92q0 27 -26.5 46.5t-65.5 19.5 t-65.5 -19.5t-26.5 -46.5q-1 -53 112 -96zM150 158q0 -39 31.5 -63.5t78.5 -24.5q45 0 73.5 22.5t28.5 57.5q0 68 -122 108l-4 -4h-5l-6 -4q-75 -33 -75 -92z" />
<glyph unicode="&#xec7e;" horiz-adv-x="507" d="M82 836l2 90q74 -33 129 -33q57 0 94 28.5t37 73.5q0 47 -38 76t-101 29q-51 0 -119 -23l4 301h342v-80h-248l-2 -94v-30q37 6 56 6q94 0 153.5 -50.5t59.5 -128.5q0 -86 -64.5 -137t-173.5 -51q-61 0 -131 23zM0 641v82h508v-82h-508zM43 152q0 96 109 145 q-96 39 -97 129q0 66 53.5 105.5t143.5 39.5q86 0 139 -38.5t53 -102.5q0 -80 -94 -127q115 -51 115 -149q0 -74 -57.5 -119t-149.5 -45q-94 0 -154.5 45t-60.5 117zM270 334q4 2 6 4q66 41 66 92q0 27 -26.5 46.5t-65.5 19.5t-65.5 -19.5t-26.5 -46.5q-1 -53 112 -96z M150 158q0 -39 31.5 -63.5t78.5 -24.5q45 0 73.5 22.5t28.5 57.5q0 68 -122 108l-4 -4h-5l-6 -4q-75 -33 -75 -92z" />
<glyph unicode="&#xec7f;" horiz-adv-x="507" d="M111 819l182 385l47 94h-12h-23h-252v80h393v-73l-225 -486h-110zM0 641v82h508v-82h-508zM43 152q0 96 109 145q-96 39 -97 129q0 66 53.5 105.5t143.5 39.5q86 0 139 -38.5t53 -102.5q0 -80 -94 -127q115 -51 115 -149q0 -74 -57.5 -119t-149.5 -45q-94 0 -154.5 45 t-60.5 117zM270 334q4 2 6 4q66 41 66 92q0 27 -26.5 46.5t-65.5 19.5t-65.5 -19.5t-26.5 -46.5q-1 -53 112 -96zM150 158q0 -39 31.5 -63.5t78.5 -24.5q45 0 73.5 22.5t28.5 57.5q0 68 -122 108l-4 -4h-5l-6 -4q-75 -33 -75 -92z" />
<glyph unicode="&#xf638;" d="M109 12l92 148q-27 43 -43 84q-72 174 -72 446q0 270 72 438q115 260 399 261q152 0 270 -103l88 139l93 -59l-105 -166l29 -51q82 -176 82 -479q0 -276 -80 -451q-51 -113 -154.5 -179.5t-230.5 -66.5q-162 0 -275 101l-75 -127zM322 362l407 756q-66 111 -172 111 q-176 0 -235 -223q-37 -141 -37 -322q0 -189 37 -322zM373 238q68 -104 178 -105q264 0 264 549q0 182 -35 311z" />
<glyph unicode="&#xf655;" horiz-adv-x="727" d="M362 -14q-135 0 -206.5 110.5t-71.5 319.5q0 420 285 420q72 0 134 -41t93 -109q47 -102 47 -280q0 -205 -72 -312.5t-209 -107.5zM365 115q129 0 129 297q0 139 -34 217t-93 78q-133 0 -134 -293q0 -143 34.5 -221t97.5 -78z" />
<glyph unicode="&#xf656;" horiz-adv-x="727" d="M334 0v496v139l-103 -92l-84 102l207 176h125v-821h-145z" />
<glyph unicode="&#xf657;" horiz-adv-x="727" d="M96 0v145q354 311 355 449q0 47 -38 76.5t-96 29.5q-84 0 -188 -65l-16 143q127 53 223 53q119 0 194.5 -65.5t75.5 -167.5q0 -184 -325 -469h22h320v-129h-527z" />
<glyph unicode="&#xf658;" horiz-adv-x="727" d="M94 27l8 143q119 -51 201 -51q68 0 111 32.5t43 86.5q0 123 -207 122h-53v134q20 -2 45 -2q213 0 213 114q0 45 -38 73t-100 28q-82 0 -190 -52l-10 138q106 39 209 38q131 0 204.5 -59t73.5 -166q0 -119 -123 -178q131 -68 131 -201q0 -109 -81.5 -173t-219.5 -64 q-106 0 -217 37z" />
<glyph unicode="&#xf659;" horiz-adv-x="727" d="M61 172v115l320 534h186v-520h103v-129h-103v-172h-145v172h-361zM223 301h199l4 293q0 10 1 27.5t3 40.5l-151 -267z" />
<glyph unicode="&#xf65a;" horiz-adv-x="727" d="M131 25l4 145q102 -51 174 -51t118 39t46 102q0 66 -47 104.5t-127 38.5q-70 0 -164 -34l6 450h463v-129h-323l-2 -129l-3 -35q47 6 66 6q127 0 207 -73.5t80 -190.5q0 -125 -87 -200.5t-231 -75.5q-84 0 -180 33z" />
<glyph unicode="&#xf65b;" horiz-adv-x="727" d="M379 -14q-137 0 -209 102t-72 297q0 217 85 333t245 116q88 0 180 -31l-20 -139q-86 43 -154 43q-160 0 -190 -224q68 53 153 54q106 0 177 -77t71 -194q0 -123 -74.5 -201.5t-191.5 -78.5zM256 268q0 -68 35 -112.5t86 -44.5t85 42t34 107q0 63 -34 106.5t-85 43.5 q-53 0 -87 -40.5t-34 -101.5z" />
<glyph unicode="&#xf65c;" horiz-adv-x="727" d="M166 0l240 559l57 127h-33h-336v131h527v-117l-295 -700h-160z" />
<glyph unicode="&#xf65d;" horiz-adv-x="727" d="M80 225q0 137 135 209q-119 66 -119 187q0 96 74 154.5t192 58.5q115 0 188 -58.5t73 -150.5q0 -111 -117 -183q141 -70 141 -215q0 -109 -76.5 -175t-201.5 -66q-127 0 -208 66.5t-81 172.5zM385 496q88 59 88 129q0 37 -32.5 62.5t-80 25.5t-81 -27t-33.5 -61 q0 -70 139 -129zM233 233q0 -51 39 -84.5t99 -33.5q55 0 91 29.5t36 76.5q0 90 -152 148q-6 -2 -10 -4l-4 -5q-99 -49 -99 -127z" />
<glyph unicode="&#xf65e;" horiz-adv-x="727" d="M119 18l20 142q84 -45 154 -45q160 0 188 223q-63 -51 -149 -51q-111 0 -180.5 75.5t-69.5 196.5t74.5 200t189.5 79q135 0 208 -102.5t73 -291.5q0 -225 -85 -341.5t-247 -116.5q-76 -1 -176 32zM352 414q51 0 85 40t34 101q0 66 -34 112t-85 46q-53 0 -87 -42t-34 -106 q0 -66 34 -108.5t87 -42.5z" />
<glyph unicode="&#xf65f;" horiz-adv-x="378" d="M33 -156l82 301h155l-112 -301h-125z" />
<glyph unicode="&#xf660;" horiz-adv-x="378" d="M113 0v145h155v-145h-155z" />
<glyph unicode="&#xf661;" horiz-adv-x="727" d="M362 528q-135 0 -206.5 111t-71.5 319q0 422 285 422q72 0 134 -41t93 -108q47 -102 47 -283q0 -205 -72 -312.5t-209 -107.5zM365 657q129 0 129 299q0 139 -34 217t-93 78q-133 0 -134 -293q1 -301 132 -301z" />
<glyph unicode="&#xf662;" horiz-adv-x="727" d="M334 543v495v140l-103 -91l-84 103l207 176h125v-823h-145z" />
<glyph unicode="&#xf663;" horiz-adv-x="727" d="M96 543v145q186 166 270.5 271.5t84.5 179.5q0 47 -38 76.5t-96 29.5q-82 0 -188 -67l-16 145q131 53 223 53q119 0 194.5 -65.5t75.5 -167.5q0 -188 -325 -471h342v-129h-527z" />
<glyph unicode="&#xf664;" horiz-adv-x="727" d="M94 571l8 144q121 -53 201 -53q68 0 111 33.5t43 86.5q0 125 -205 125q-25 0 -55 -4v133h45q213 0 213 115q0 45 -38 72.5t-98 27.5q-84 0 -192 -51l-10 137q111 39 209 39q131 0 204.5 -59.5t73.5 -165.5q0 -119 -123 -178q131 -68 131 -201q0 -109 -81.5 -174.5 t-219.5 -65.5q-106 0 -217 39z" />
<glyph unicode="&#xf665;" horiz-adv-x="727" d="M422 543v172h-361v116l320 535h186v-522h103v-129h-103v-172h-145zM223 844h199l4 295q2 16 4 67q-35 -66 -151 -268q-52 -88 -56 -94z" />
<glyph unicode="&#xf666;" horiz-adv-x="727" d="M131 567l4 146q102 -51 174 -51t118 38.5t46 102.5q0 66 -47 104.5t-127 38.5q-70 0 -164 -35l6 451h463v-129h-323l-2 -129l-3 -35q47 6 66 6q127 0 207 -73.5t80 -190.5q0 -125 -87 -199.5t-233 -74.5q-88 -1 -178 30z" />
<glyph unicode="&#xf667;" horiz-adv-x="727" d="M379 530q-137 0 -209 102.5t-72 297.5q0 217 85 332.5t245 115.5q88 0 180 -30l-20 -140q-86 43 -154 43q-160 0 -190 -223q68 53 153 53q109 0 178.5 -75.5t69.5 -194.5q0 -123 -74.5 -202t-191.5 -79zM377 655q51 0 85 42t34 108q0 63 -34 106t-85 43q-53 0 -87 -40 t-34 -101q0 -68 35 -113t86 -45z" />
<glyph unicode="&#xf668;" horiz-adv-x="727" d="M166 543l240 561l57 127h-33h-336v131h527v-117l-295 -702h-160z" />
<glyph unicode="&#xf669;" horiz-adv-x="727" d="M369 530q-127 0 -208 67t-81 173q0 137 135 207q-119 68 -119 188q0 96 74 154.5t192 58.5q115 0 188 -58t73 -151q0 -109 -117 -184q141 -72 141 -213q0 -109 -76.5 -175.5t-201.5 -66.5zM385 1038q88 59 88 131q0 37 -32.5 62.5t-80 25.5t-81 -26.5t-33.5 -61.5 q0 -70 139 -131zM371 659q55 0 91 30t36 77q0 90 -152 147q-6 -2 -10 -6l-4 -2q-98 -49 -99 -127q0 -51 39.5 -85t98.5 -34z" />
<glyph unicode="&#xf66a;" horiz-adv-x="727" d="M119 563l20 139q88 -43 154 -43q160 0 188 222q-63 -49 -149 -50q-111 0 -180.5 76t-69.5 197t74.5 198.5t189.5 77.5q135 0 208 -101t73 -292q0 -223 -85 -340t-247 -117q-76 0 -176 33zM352 958q51 0 85 40t34 102q0 63 -35 109t-84 46q-53 0 -87 -42t-34 -105 q0 -66 35 -108t86 -42z" />
<glyph unicode="&#xf66b;" horiz-adv-x="378" d="M33 391l82 301h155l-112 -301h-125z" />
<glyph unicode="&#xf66c;" horiz-adv-x="378" d="M113 547v145h155v-145h-155z" />
<glyph unicode="&#xf6e1;" horiz-adv-x="270" d="M25 -104l57 208h113l-80 -208h-90z" />
<glyph unicode="&#xf6e2;" horiz-adv-x="270" d="M25 715l57 209h113l-80 -209h-90z" />
<glyph unicode="&#xf6e5;" horiz-adv-x="507" d="M0 641v82h508v-82h-508z" />
<glyph unicode="&#xf6e6;" horiz-adv-x="507" d="M0 641v82h508v-82h-508z" />
<glyph unicode="&#xf6e7;" horiz-adv-x="270" d="M80 0v104h110v-104h-110z" />
<glyph unicode="&#xf6e8;" horiz-adv-x="270" d="M80 819v105h110v-105h-110z" />
<glyph unicode="&#xf8ff;" horiz-adv-x="1638" d="M72 207v1300h1288q86 0 146.5 -60.5t60.5 -146.5v-1300h-1288q-86 0 -146.5 60.5t-60.5 146.5zM616.5 774q69.5 0 106.5 39t37 109v354q0 147 -143.5 147t-143.5 -147v-354q0 -70 37 -109t106.5 -39zM815 784h111v484q0 47 32.5 47t32.5 -47v-484h111v496q0 139 -119 139 q-45 0 -55 -20v14h-113v-629zM1184 922q0 -70 36.5 -109t106.5 -39t106.5 39t36.5 109v69h-110v-63q0 -47 -33 -47t-33 47v270h160v107h-162v108h-110v-108h-37v-107h39v-276zM184 784h111v211h121v123h-121v172h137v123h-248v-629zM616.5 883q-32.5 0 -32.5 45v340 q0 47 32.5 47t32.5 -47v-340q0 -45 -32.5 -45zM1069 233q0 -70 37 -108.5t106.5 -38.5t106.5 39t37 108v25h-111v-18q0 -45 -32.5 -45t-32.5 45v82h176v262q0 147 -143.5 147t-143.5 -147v-351zM176 252q0 -166 149.5 -166t149.5 182q0 51 -24.5 93t-110.5 102 q-51 35 -51 82q0 78 39 78q37 0 37 -66v-51h110v59q0 166 -149.5 166t-149.5 -182q0 -35 6 -59.5t38 -62.5t91 -77q51 -35 51 -78q0 -78 -38 -77q-37 0 -37 65v21h-111v-29zM739 233q0 -70 37 -108.5t106.5 -38.5t106.5 39t37 108v70h-111v-63q0 -45 -32.5 -45t-32.5 45v264 h160v106h-162v113h-111v-113h-37v-106h39v-271zM537 598h110v125h-110v-125zM1180 416v159q0 47 32.5 47.5t32.5 -47.5v-159h-65zM537 94h110v441h-110v-441zM1440 94h12v43l18 -43h9l18 43v-43h12v64h-16l-18 -43l-19 43h-16v-64zM1376 145h21v-51h12v51h21v13h-54v-13z " />
</font>
</defs>
</svg>
