<?xml version="1.0" standalone="no"?>
<!DOCTYPE svg PUBLIC "-//W3C//DTD SVG 1.1//EN" "http://www.w3.org/Graphics/SVG/1.1/DTD/svg11.dtd" >
<svg xmlns="http://www.w3.org/2000/svg">
<metadata>
This is a custom SVG webfont generated by Font Squirrel.
Copyright   : Copyright c 2009 by TypeTogether All rights reserved
Designer    : Veronika Burian Jos Scaglione
Foundry     : TypeTogether
Foundry URL : wwwtypetogethercom
</metadata>
<defs>
<font id="AdelleBasicBold" horiz-adv-x="1024" >
<font-face units-per-em="2048" ascent="1546" descent="-502" />
<missing-glyph horiz-adv-x="413" />
<glyph unicode="&#xfb00;" horiz-adv-x="1552" d="M49 862v205h154v72q0 213 121.5 306t371.5 93q174 0 283 -57q113 90 321 90q166 0 264.5 -63.5t98.5 -231.5l-287 -35q2 76 -19.5 102.5t-74.5 26.5q-70 0 -92.5 -38t-22.5 -115v-130q0 -20 17 -20h323v-205h-340v-637q0 -25 7.5 -32t29.5 -9l250 -22v-162h-596v842 q0 20 -16 20h-330v-639q0 -23 5 -30t24 -9l172 -22v-162h-658v164l115 12q20 2 26.5 10.5t6.5 32.5v623q0 20 -17 20h-137zM512 1087q0 -20 16 -20h330v125q0 82 -33.5 110.5t-128.5 28.5q-102 0 -143 -33.5t-41 -121.5v-89z" />
<glyph unicode="&#xfb01;" horiz-adv-x="1327" d="M49 862v205h154v102q0 219 125 310.5t385 91.5q104 0 176 -11.5t133 -44t92 -99t33 -169.5l-291 -35q0 96 -30.5 127t-129.5 31q-102 0 -143 -35t-41 -123v-125q0 -12 4 -16t19 -4h632v-850q0 -25 5.5 -32t27.5 -9l105 -14v-162h-447v838q0 25 -20 24h-326v-637 q0 -27 6 -33t31 -10l143 -20v-162h-637v162l111 14q25 2 31 10.5t6 38.5v617q0 20 -17 20h-137z" />
<glyph unicode="&#xfb02;" horiz-adv-x="1327" d="M49 862v205h154v92q0 221 126 316.5t384 95.5q127 0 204.5 -11.5t138 -45t86 -98t25.5 -169.5v-1030q0 -25 5.5 -32t27.5 -9l100 -14v-162h-442v1212q0 98 -25.5 128t-121.5 30q-104 0 -151.5 -36t-47.5 -122v-125q0 -12 4 -16t19 -4h235v-205h-258v-637q0 -27 6 -33 t31 -10l143 -20v-162h-637v162l111 14q25 2 31 10.5t6 38.5v617q0 20 -17 20h-137z" />
<glyph unicode="&#xfb03;" horiz-adv-x="1982" d="M49 862v205h154v72q0 213 121.5 306t371.5 93q178 0 287 -57q119 90 385 90q104 0 176 -11.5t133.5 -44t92 -99t32.5 -169.5l-291 -35q0 96 -30.5 127t-128.5 31q-102 0 -143.5 -35t-41.5 -123v-125q0 -12 4.5 -16t18.5 -4h633v-850q0 -25 5 -32t27 -9l105 -14v-162h-447 v838q0 25 -20 24h-326v-637q0 -27 6.5 -33t30.5 -10l144 -20v-162h-490v842q0 20 -16 20h-330v-639q0 -23 5 -30t24 -9l172 -22v-162h-658v164l115 12q20 2 26.5 10.5t6.5 32.5v623q0 20 -17 20h-137zM512 1087q0 -20 16 -20h330v125q0 82 -33.5 110.5t-128.5 28.5 q-102 0 -143 -33.5t-41 -121.5v-89z" />
<glyph unicode="&#xfb04;" horiz-adv-x="1982" d="M49 862v205h154v72q0 213 121.5 306t371.5 93q182 0 291 -61q123 94 381 94q252 0 352.5 -61.5t102.5 -262.5v-1030q0 -25 5 -32t27 -9l101 -14v-162h-443v1212q0 98 -25.5 128t-121.5 30q-104 0 -151.5 -36t-47.5 -122v-125q0 -12 4.5 -16t18.5 -4h235v-205h-258v-637 q0 -27 6.5 -33t30.5 -10l144 -20v-162h-490v842q0 20 -16 20h-330v-639q0 -23 5 -30t24 -9l172 -22v-162h-658v164l115 12q20 2 26.5 10.5t6.5 32.5v623q0 20 -17 20h-137zM512 1087q0 -20 16 -20h330v115q0 88 -32.5 118.5t-129.5 30.5q-102 0 -143 -33.5t-41 -121.5v-89z " />
<glyph unicode=" "  horiz-adv-x="413" />
<glyph unicode="&#x09;" horiz-adv-x="413" />
<glyph unicode="&#xa0;" horiz-adv-x="413" />
<glyph unicode="!" horiz-adv-x="569" d="M109 135q0 160 176 160t176 -160t-176 -160t-176 160zM119 1120v363h330v-363l-35 -719h-258z" />
<glyph unicode="&#x22;" horiz-adv-x="825" d="M82 915v531h276v-531h-276zM467 915v531h276v-531h-276z" />
<glyph unicode="#" horiz-adv-x="1243" d="M61 248l45 207h193l35 231h-205l43 209h193l32 217h213l-32 -217h176l32 217h213l-32 -217h207l-41 -209h-197l-35 -231h207l-41 -207h-199l-37 -248h-210l34 248h-176l-37 -248h-213l37 248h-205zM510 455h178l35 231h-176z" />
<glyph unicode="$" horiz-adv-x="1083" d="M70 76v327h223l26 -143q4 -23 11.5 -31t27.5 -14q51 -18 152 -18q207 0 207 145q0 72 -65.5 114t-159 66.5t-186.5 58t-158.5 113.5t-65.5 209q0 160 93 256t251 129v160h256v-150q152 -10 293 -59v-350l-225 22l-25 136q-6 35 -41 45q-41 10 -117 10q-203 0 -202 -137 q0 -68 65.5 -109t158.5 -67.5t186 -61.5t158.5 -118t65.5 -210q0 -158 -85 -254t-234 -129v-180h-254v166q-227 11 -356 74z" />
<glyph unicode="%" horiz-adv-x="1818" d="M66 887q0 180 90 281.5t270 101.5q342 0 342 -357q0 -180 -91 -283.5t-267 -103.5q-182 0 -263 99.5t-81 261.5zM301 901q0 -207 119 -207q61 0 89 51.5t28 159.5q0 100 -27 147.5t-88 47.5q-121 0 -121 -199zM377 -35l772 1307h283l-770 -1307h-285zM1051 336 q0 180 90 281.5t270 101.5q342 0 342 -357q0 -180 -91 -283.5t-267 -103.5q-182 0 -263 99.5t-81 261.5zM1286 350q0 -106 26.5 -156.5t90 -50.5t90.5 50.5t27 160.5q0 100 -26 147.5t-89 47.5q-119 0 -119 -199z" />
<glyph unicode="&#x26;" horiz-adv-x="1470" d="M72 397q0 295 295 418q-76 119 -76 238q0 156 109.5 247t285.5 91q104 0 206.5 -28t158.5 -63v-321l-220 8l-24 137q-4 25 -29 33q-27 8 -73 8q-59 0 -90 -30.5t-31 -81.5q0 -86 112 -217l230 -271q29 88 47 228h352v-158l-94 -19q-18 -4 -25.5 -9t-9.5 -25 q-29 -133 -76 -232l129 -147q18 -23 39 -25l121 -18v-160h-346l-113 131q-166 -156 -413 -156q-211 0 -338 111.5t-127 310.5zM369 412q0 -82 47 -136.5t145 -54.5q135 0 223 96l-270 308q-145 -61 -145 -213z" />
<glyph unicode="'" horiz-adv-x="442" d="M82 915v531h276v-531h-276z" />
<glyph unicode="(" horiz-adv-x="729" d="M86 573q0 485 352 951l232 -138q-131 -195 -192.5 -388t-61.5 -425q0 -238 59.5 -413.5t179.5 -380.5l-235 -133q-145 190 -239.5 429.5t-94.5 497.5z" />
<glyph unicode=")" horiz-adv-x="729" d="M66 -219q125 190 187 380.5t62 428.5q0 231 -59 412.5t-186 386.5l233 135q147 -188 243.5 -433t96.5 -501q0 -483 -346 -944z" />
<glyph unicode="*" horiz-adv-x="976" d="M84 1178l70 204l137 -45l162 -133l-74 199v143h215v-143l-72 -199h-69l-19 -63l53 -41l-59 -201l-86 -117l-174 129l88 115l178 115l-213 -8zM487 1100l56 41l-21 63l164 133l137 45l68 -204l-137 -45l-211 8l178 -115l88 -115l-174 -129l-86 117z" />
<glyph unicode="+" horiz-adv-x="1167" d="M186 543v237h273v287h246v-287h274v-237h-274v-295h-246v295h-273z" />
<glyph unicode="," horiz-adv-x="516" d="M102 70l45 221q141 -2 214 -33t73 -127q0 -55 -43 -141l-110 -234l-140 41l56 219q6 18 -11 25z" />
<glyph unicode="-" horiz-adv-x="636" d="M41 465v260h555v-260h-555z" />
<glyph unicode="." horiz-adv-x="555" d="M102 135q0 160 177 160q174 0 174 -160t-174 -160q-177 0 -177 160z" />
<glyph unicode="/" horiz-adv-x="929" d="M23 -188l575 1734h291l-574 -1734h-292z" />
<glyph unicode="0" horiz-adv-x="1232" d="M78 594q0 616 553 616q287 0 405.5 -155.5t118.5 -444.5q0 -305 -128 -470t-421 -165q-291 0 -409.5 160t-118.5 459zM408 590q0 -211 47 -303t163 -92q113 0 161 93t48 310q0 213 -45 301t-157 88q-117 0 -167 -92t-50 -305z" />
<glyph unicode="1" horiz-adv-x="831" d="M72 0v162l176 14q20 2 26.5 9.5t6.5 31.5v715q0 35 -27 43l-178 37l22 168h492v-963q0 -25 5 -32t28 -9l168 -14v-162h-719z" />
<glyph unicode="2" horiz-adv-x="1073" d="M51 831q2 379 465 379q430 0 430 -327q0 -90 -45 -178.5t-92 -139.5t-145 -145l-232 -221h301q29 0 33 24l29 162h217v-385h-946v190l274 269q129 125 175 173t83 108.5t37 117.5q0 131 -146 131q-88 0 -123.5 -38t-35.5 -144z" />
<glyph unicode="3" horiz-adv-x="1062" d="M2 18l164 181q139 -135 307 -136q213 0 213 185q0 176 -205 176q-66 0 -151 -14v204l100 13q227 29 227 221q0 141 -149 141q-88 0 -126 -39t-38 -143l-281 24q0 379 459 379q229 0 332.5 -85t103.5 -255q0 -123 -66.5 -205.5t-168.5 -113.5v-8q270 -41 270 -316 q0 -197 -134 -297t-361 -100q-154 0 -285 50t-211 138z" />
<glyph unicode="4" horiz-adv-x="1140" d="M53 127v211l420 879l268 -123l-387 -727h297v329l283 43v-372h170v-240h-170v-264h-283v264h-598z" />
<glyph unicode="5" horiz-adv-x="1110" d="M6 18l164 187q139 -139 326 -139q96 0 158.5 56t62.5 161q0 113 -57.5 155.5t-133.5 42.5q-113 0 -196 -88l-203 84l45 703h535q20 0 26 24l27 113l182 12v-407h-543l-28 -281q106 70 260 70q184 0 289.5 -106.5t105.5 -311.5q0 -199 -133 -331t-371 -132 q-340 0 -516 188z" />
<glyph unicode="6" horiz-adv-x="1157" d="M88 649q0 121 25.5 232.5t83 220t171 174t271.5 65.5q428 0 428 -337l-289 -35q0 92 -31.5 126.5t-113.5 34.5q-217 0 -230 -382q135 80 287 79q184 0 292 -100t108 -295q0 -229 -134.5 -343t-357.5 -114q-145 0 -246.5 50.5t-158 145.5t-81 210.5t-24.5 267.5zM403 543 q2 -74 10.5 -126t28 -105.5t60.5 -82t102 -28.5q172 0 172 217q0 104 -37 147t-129 43q-101 1 -207 -65z" />
<glyph unicode="7" horiz-adv-x="1089" d="M80 707v473h989v-232q-186 -199 -311 -491.5t-133 -593.5h-326q53 625 446 1059h-391q-14 0 -18 -5.5t-8 -21.5l-33 -172z" />
<glyph unicode="8" horiz-adv-x="1105" d="M68 330q0 111 51 192.5t143 157.5q-152 104 -151 281q0 182 124.5 281t323.5 99q201 0 313.5 -87t112.5 -240q0 -176 -162 -318q215 -123 215 -325q0 -193 -139 -294.5t-367 -101.5q-223 0 -343.5 90.5t-120.5 264.5zM324 346q0 -166 213 -166q94 0 142 43t48 113 q0 27 -6 49.5t-26 42.5l-31 34q-12 13 -47 33l-47 26q-13 7 -57 28.5t-54 25.5q-135 -125 -135 -229zM406 1006q0 -37 15 -68t49 -56.5t63.5 -43t84.5 -43.5q106 111 107 204q0 139 -164 140q-76 0 -115.5 -37t-39.5 -96z" />
<glyph unicode="9" horiz-adv-x="1167" d="M82 754q0 219 129 337.5t356 118.5q518 0 518 -659q0 -719 -546 -719q-123 0 -241 40t-189 110l131 188q131 -111 284 -111q135 0 186.5 90.5t57.5 251.5q-121 -78 -287 -77q-176 0 -287.5 113.5t-111.5 316.5zM395 770q0 -113 37 -167t127 -54q104 0 209 74 q-4 78 -12 134t-28.5 113.5t-61.5 87t-101 29.5q-170 0 -170 -217z" />
<glyph unicode=":" horiz-adv-x="555" d="M102 135q0 160 177 160q174 0 174 -160t-174 -160q-177 0 -177 160zM102 913.5q0 159.5 177 159.5q174 0 174 -159.5t-174 -159.5q-177 0 -177 159.5z" />
<glyph unicode=";" horiz-adv-x="522" d="M102 70l45 221q141 -2 214 -33t73 -127q0 -55 -43 -141l-110 -234l-140 41l56 219q6 18 -11 25zM111 913.5q0 159.5 176 159.5q174 0 174 -159.5t-174 -159.5q-176 0 -176 159.5z" />
<glyph unicode="&#x3c;" horiz-adv-x="1167" d="M141 453v286l795 291l70 -231l-598 -201l602 -201l-70 -225z" />
<glyph unicode="=" horiz-adv-x="1167" d="M188 266v240h791v-240h-791zM188 647v240h791v-240h-791z" />
<glyph unicode="&#x3e;" horiz-adv-x="1167" d="M141 397l602 201l-596 201l68 231l795 -291v-286l-799 -281z" />
<glyph unicode="?" horiz-adv-x="1081" d="M102 1016v377q236 90 447 90q496 0 495 -422q0 -199 -113.5 -322t-330.5 -149v-189h-309v373q70 6 112.5 11.5t106 23.5t99.5 46t63.5 78t27.5 118q0 86 -43 133t-122 47q-78 0 -138 -25q-23 -8 -26 -41l-19 -131zM270 135q0 160 176 160q174 0 174.5 -160t-174.5 -160 q-176 0 -176 160z" />
<glyph unicode="@" horiz-adv-x="1722" d="M117 344q0 369 220 594t574 225q322 0 515.5 -171t193.5 -480q0 -272 -108.5 -404.5t-294.5 -132.5q-184 0 -236 142q-145 -141 -250 -142q-109 0 -171 75t-62 214q0 229 121.5 389t328.5 160q145 0 285 -65l-47 -302q-27 -147 -27 -217q0 -80 76 -79q51 0 89 35.5 t56.5 93t26.5 111.5t8 106q0 231 -125 357t-385 126q-283 0 -432 -184.5t-149 -450.5q0 -268 144 -409.5t409 -141.5q168 0 342 64l49 -168q-164 -72 -416 -72q-340 0 -537.5 187.5t-197.5 539.5zM705 297q0 -143 81.5 -143t176.5 108l59 377q-35 25 -90 25 q-92 0 -159.5 -103.5t-67.5 -263.5z" />
<glyph unicode="A" horiz-adv-x="1554" d="M6 0v160l90 22q41 10 51 39l449 1262h362l447 -1266q8 -25 49 -35l94 -22v-160h-647v160l168 18l-74 213h-508l-71 -213l162 -18v-160h-572zM551 612h383l-182 557h-13z" />
<glyph unicode="B" horiz-adv-x="1376" d="M78 0v160l129 14q20 2 26.5 10.5t6.5 30.5v1049q0 25 -6.5 32t-26.5 9l-129 14v164h690q449 0 449 -363q0 -135 -72 -222t-178 -122v-6q342 -39 342 -362q0 -408 -559 -408h-672zM555 221h141q141 0 213 47t72 172q0 215 -254 215h-172v-434zM555 860h82q129 0 203.5 45 t74.5 164q0 115 -62 153t-185 38h-113v-400z" />
<glyph unicode="C" horiz-adv-x="1386" d="M63 748q0 342 197 551.5t565 209.5q287 0 465 -116v-402l-225 19l-33 200q-6 29 -33 37q-78 25 -182 25q-199 0 -312.5 -134t-113.5 -390q0 -266 108.5 -402.5t303.5 -136.5q119 0 205 27q18 4 25 12t11 31l31 190h219v-381q-184 -113 -512 -113q-719 1 -719 773z" />
<glyph unicode="D" horiz-adv-x="1540" d="M78 0v164l129 14q20 2 26.5 9.5t6.5 31.5v1047q0 23 -6.5 31t-26.5 10l-129 14v162h663q375 0 555.5 -187.5t180.5 -531.5q0 -354 -192.5 -559t-577.5 -205h-629zM557 221h117q481 0 481 524q0 279 -110.5 398t-358.5 119h-129v-1041z" />
<glyph unicode="E" horiz-adv-x="1284" d="M78 0v160l129 14q20 2 26.5 10.5t6.5 30.5v1051q0 25 -6.5 32t-26.5 9l-129 14v162h1089v-414l-225 10l-29 156q-6 27 -34 27h-322v-404h479v-227h-479v-412h367q29 0 32 23l33 180h223v-422h-1134z" />
<glyph unicode="F" horiz-adv-x="1234" d="M78 0v160l129 14q20 2 26.5 10.5t6.5 30.5v1051q0 25 -6.5 32t-26.5 9l-129 14v162h1081v-414l-225 10l-29 156q-6 27 -35 27h-313v-402h471v-227h-471v-414q0 -25 5 -32t28 -9l301 -16v-162h-813z" />
<glyph unicode="G" horiz-adv-x="1478" d="M61 745q0 342 197 553t571 211q119 0 247 -30.5t216 -87.5v-387l-227 16l-31 184q-8 35 -33 41q-94 27 -188 27q-197 0 -309.5 -140.5t-112.5 -381.5q0 -258 109.5 -398.5t326.5 -140.5q88 0 170 14q33 6 33 37v268h-227l28 185h629v-164l-84 -8q-33 -2 -33 -29v-440 q-207 -98 -530 -99q-205 0 -353.5 57.5t-233.5 164t-125 241.5t-40 307z" />
<glyph unicode="H" horiz-adv-x="1675" d="M78 0v160l129 14q20 2 26.5 10.5t6.5 30.5v1049q0 25 -6.5 32t-26.5 9l-129 14v164h649v-164l-137 -16q-23 -2 -28 -9.5t-5 -29.5v-387h561v387q0 25 -6 32t-27 9l-129 14v164h648v-164l-138 -16q-23 -2 -27.5 -9.5t-4.5 -29.5v-1047q0 -25 5 -32t27 -9l138 -16v-160 h-648v160l129 14q20 2 26.5 10.5t6.5 30.5v432h-561v-430q0 -25 5 -32t28 -9l137 -16v-160h-649z" />
<glyph unicode="I" horiz-adv-x="827" d="M74 0v160l149 14q20 2 26.5 9t6.5 32v1049q0 25 -6 32t-27 9l-149 14v164h688v-164l-158 -16q-23 -2 -28 -9.5t-5 -29.5v-1047q0 -25 5.5 -32t27.5 -9l158 -16v-160h-688z" />
<glyph unicode="J" horiz-adv-x="1056" d="M72 55v365l229 -17l21 -147q2 -20 22 -27q37 -12 82 -12q55 0 77.5 26.5t22.5 92.5v930q0 23 -6 30t-26 9l-185 14v164h705v-164l-137 -16q-23 -2 -28 -8.5t-5 -28.5v-932q0 -182 -92.5 -270.5t-294.5 -88.5q-117 0 -227.5 24.5t-157.5 55.5z" />
<glyph unicode="K" horiz-adv-x="1540" d="M78 0v162l129 14q20 2 26.5 9.5t6.5 31.5v1049q0 23 -6.5 31t-26.5 10l-129 14v162h649v-162l-137 -16q-23 -2 -28 -9.5t-5 -29.5v-512l483 549l-127 16v164h537v-164l-86 -14q-41 -6 -64 -35l-376 -426l411 -629q18 -29 60 -33l127 -20v-162h-453l-383 592l-129 -154 v-219q0 -25 5 -32t28 -9l158 -16v-162h-670z" />
<glyph unicode="L" horiz-adv-x="1277" d="M78 0v162l129 14q20 2 26.5 10.5t6.5 30.5v1049q0 25 -6.5 32t-26.5 9l-129 14v162h682v-162l-170 -16q-23 -2 -28 -9.5t-5 -29.5v-1047h365q29 0 32 23l33 204h225v-446h-1134z" />
<glyph unicode="M" horiz-adv-x="1970" d="M78 0v160l129 14q20 2 26.5 10.5t6.5 30.5v1051q0 23 -6.5 31t-26.5 10l-129 14v162h549l356 -928h8l375 928h532v-160l-137 -16q-23 -2 -27.5 -9.5t-4.5 -29.5v-1053q0 -35 32 -39l137 -16v-160h-673v160l168 14q20 2 26 10.5t6 30.5v778h-8l-293 -698h-333l-289 700 h-10v-778q0 -25 5 -32t27 -9l176 -16v-160h-622z" />
<glyph unicode="N" horiz-adv-x="1693" d="M78 0v160l129 14q20 2 26.5 10.5t6.5 30.5v1053q0 25 -6.5 32t-26.5 9l-129 14v160h508l643 -1071v852q0 25 -6 32t-27 9l-129 14v164h569v-164l-137 -16q-23 -2 -28 -9.5t-5 -29.5v-1264h-336l-653 1069v-852q0 -25 5 -32t28 -9l137 -16v-160h-569z" />
<glyph unicode="O" horiz-adv-x="1554" d="M63 737q0 342 190.5 557t543.5 215q346 0 520 -207.5t174 -537.5q0 -371 -183.5 -580t-539.5 -209t-530.5 206t-174.5 556zM391 743q0 -516 389 -516q385 0 385 518q0 506 -372 506q-184 0 -293 -127t-109 -381z" />
<glyph unicode="P" horiz-adv-x="1323" d="M78 0v162l129 14q20 2 26.5 10.5t6.5 30.5v1047q0 25 -6.5 32t-26.5 9l-129 14v164h694q264 0 379 -120t115 -316q0 -500 -561 -500h-150v-328q0 -25 5 -32t28 -9l293 -16v-162h-803zM555 766h102q59 0 103.5 9t88.5 35t68.5 81t24.5 137q0 135 -69.5 183.5t-196.5 48.5 h-121v-494z" />
<glyph unicode="Q" horiz-adv-x="1552" d="M55 737q0 342 190.5 557t542.5 215q236 0 395.5 -102t229.5 -266t70 -377q0 -326 -143.5 -528.5t-421.5 -245.5q-4 -25 -5 -70q0 -63 28 -95t93 -32q72 0 148 31l59 -180q-143 -76 -291 -76q-324 0 -323 305q0 55 6 111q-291 35 -434.5 235.5t-143.5 517.5zM383 743 q0 -516 391 -516q385 0 385 518q0 506 -373 506q-186 0 -294.5 -127t-108.5 -381z" />
<glyph unicode="R" horiz-adv-x="1406" d="M78 0v164l129 14q20 2 26.5 9.5t6.5 31.5v1047q0 23 -6.5 31t-26.5 10l-129 14v162h698q256 0 366.5 -115t110.5 -295q0 -274 -270 -393q70 -33 119 -164l112 -293q18 -33 62 -39l127 -20v-164h-447l-184 514q-18 53 -44 72.5t-77 19.5h-96v-385q0 -25 5 -32t28 -9 l143 -16v-164h-653zM555 819h94q131 0 205 49.5t74 186.5q0 115 -64.5 160t-206.5 45h-102v-441z" />
<glyph unicode="S" horiz-adv-x="1214" d="M92 59v400h230l40 -195q4 -31 35 -37q90 -23 172 -22q258 0 258 190q0 47 -18 82t-58 59.5t-78 38t-100 31.5q-201 57 -274 101q-178 106 -178 342q0 227 151.5 343.5t397.5 116.5q225 0 420 -82v-399l-232 21l-24 165q-4 31 -25 39q-72 23 -150 23q-113 0 -171 -47 t-58 -127q0 -39 18.5 -71t38 -50t70.5 -39.5t74.5 -30t93.5 -28.5q94 -29 149.5 -52.5t125 -72.5t103.5 -128t34 -188q0 -238 -161 -352.5t-415 -114.5q-129 0 -266 26.5t-203 57.5z" />
<glyph unicode="T" horiz-adv-x="1421" d="M51 1059v424h1319v-424h-223l-33 178q-4 23 -33 23h-211v-1043q0 -23 5.5 -30t27.5 -9l225 -16v-162h-819v162l211 14q20 2 26.5 9.5t6.5 31.5v1043h-211q-29 0 -33 -23l-33 -178h-225z" />
<glyph unicode="U" horiz-adv-x="1607" d="M61 1321v162h648v-162l-138 -16q-23 -2 -27.5 -9.5t-4.5 -29.5v-670q0 -188 58 -275.5t218 -87.5q164 0 230.5 80t66.5 275v678q0 25 -6 32t-27 9l-129 14v162h606v-162l-137 -16q-23 -2 -28 -9.5t-5 -29.5v-736q0 -283 -151.5 -419t-431.5 -136q-303 0 -442.5 137.5 t-139.5 426.5v727q0 25 -6 32t-27 9z" />
<glyph unicode="V" horiz-adv-x="1505" d="M10 1323l21 160h620v-160l-166 -18l308 -1024h16l297 1024l-164 18l21 160h530v-160l-86 -23q-45 -10 -51 -38l-375 -1262h-418l-411 1266q-8 25 -50 34z" />
<glyph unicode="W" horiz-adv-x="2136" d="M12 1323l21 160h626v-160l-172 -20l209 -1002h17l235 907h312l233 -913h16l211 1008l-172 20l21 160h553v-160l-97 -23q-37 -6 -47 -36l-290 -1264h-414l-201 750h-12l-189 -750h-401l-309 1264q-6 27 -45 36z" />
<glyph unicode="X" horiz-adv-x="1583" d="M51 1323l21 160h641v-160l-160 -18l266 -373l279 373l-158 18l21 160h540v-160l-100 -23q-29 -8 -51 -38l-383 -496l419 -545q31 -33 52 -39l110 -22v-160h-671v160l161 18l-278 375l-277 -375l158 -18v-160h-586v160l119 22q35 8 53 39l389 504l-409 541q-16 27 -49 34z " />
<glyph unicode="Y" horiz-adv-x="1384" d="M6 1323l21 160h614v-160l-160 -18l248 -484h16l248 484l-157 18l20 160h522v-160l-86 -23q-39 -10 -51 -38l-371 -705v-340q0 -23 5.5 -30t27.5 -9l217 -16v-162h-803v162l205 14q20 2 26.5 9.5t6.5 31.5v336l-408 713q-14 23 -49 34z" />
<glyph unicode="Z" horiz-adv-x="1376" d="M104 0v199l766 1063h-454q-29 0 -33 -23l-39 -192l-221 -7v443h1124v-207l-755 -1057h499q29 0 33 23l39 219h221v-461h-1180z" />
<glyph unicode="[" horiz-adv-x="630" d="M98 -293v1776h459v-156l-127 -22q-33 -4 -33 -41v-1336q0 -39 33 -43l127 -22v-156h-459z" />
<glyph unicode="\" horiz-adv-x="921" d="M41 1546h281l575 -1734h-283z" />
<glyph unicode="]" horiz-adv-x="630" d="M68 -137l133 22q33 4 32 43v1295q0 76 -32 82l-133 22v156h464v-1776h-464v156z" />
<glyph unicode="^" horiz-adv-x="1247" d="M61 612l404 748h313l408 -748h-295l-273 492l-266 -492h-291z" />
<glyph unicode="_" d="M0 -152h1024v-219h-1024v219z" />
<glyph unicode="`" d="M281 1448l168 160l313 -357l-117 -102z" />
<glyph unicode="a" horiz-adv-x="1140" d="M68 279q0 152 94 227.5t289 87.5l235 16v113q0 84 -24.5 123t-112.5 39q-82 0 -116 -25.5t-34 -111.5l-288 24q0 315 440 315q240 0 338 -79.5t98 -290.5v-498q0 -25 5 -32t28 -9l98 -16v-162h-377l-20 111l-10 2q-141 -137 -344 -138q-299 1 -299 304zM383 309 q0 -113 117 -112q86 0 186 73v170l-139 -10q-90 -6 -127 -33t-37 -88z" />
<glyph unicode="b" horiz-adv-x="1247" d="M18 1380l23 166h422v-567l8 -2q135 111 309 110q178 0 287 -126.5t109 -397.5q0 -303 -115 -445.5t-316 -142.5q-186 0 -301 129l-10 -2l-14 -102h-293q31 197 31 299v999q0 35 -27 43zM465 295q88 -80 188 -80q199 0 199 332q0 131 -46 215t-142 84q-90 0 -199 -72v-479 z" />
<glyph unicode="c" horiz-adv-x="1044" d="M55 518q0 279 152.5 424t408.5 145q113 0 212.5 -25.5t152.5 -60.5v-321l-219 10l-25 135q-4 27 -24 33q-43 14 -105 14q-100 0 -163.5 -77.5t-63.5 -245.5q0 -342 264 -342q119 0 256 59l80 -190q-166 -100 -389 -101q-266 0 -401.5 148.5t-135.5 394.5z" />
<glyph unicode="d" horiz-adv-x="1251" d="M72 520q0 289 122.5 428t311.5 139q156 0 289 -98v311q0 33 -27 41l-113 39l23 166h412v-1331q0 -23 5 -30t27 -9l99 -14v-162h-381l-21 115l-14 2q-145 -141 -336 -142q-397 0 -397 545zM395 526q0 -309 187 -309q98 0 200 88v483q-90 61 -176 62q-109 0 -160 -88.5 t-51 -235.5z" />
<glyph unicode="e" horiz-adv-x="1075" d="M55 541q0 266 142.5 406t365.5 140q213 0 332 -119.5t119 -375.5q0 -55 -4 -137h-627q16 -242 242 -242q117 0 305 70l76 -203q-215 -104 -420 -105q-281 0 -406 153t-125 413zM385 649h326q-2 217 -154 217q-156 0 -172 -217z" />
<glyph unicode="f" horiz-adv-x="894" d="M49 862v205h154v113q0 203 110.5 297t327.5 94q80 0 139.5 -12.5t113.5 -42t84 -90t30 -150.5l-287 -35v13q0 65 -20 89q-22 27 -74 27q-72 0 -93.5 -36t-21.5 -117v-130q0 -20 16 -20h324v-205h-340v-637q0 -25 7 -32t30 -9l250 -22v-162h-744v164l115 12 q20 2 26.5 10.5t6.5 32.5v623q0 20 -17 20h-137z" />
<glyph unicode="g" horiz-adv-x="1165" d="M49 -209q0 63 25.5 107.5t87.5 101.5q-90 39 -90 135q0 61 59 125q47 49 127 123q-80 39 -128 119t-48 188q0 182 120 289.5t349 107.5q111 0 188 -20h400v-174l-189 -14q76 -96 76 -207q0 -168 -120 -264.5t-316 -96.5q-96 0 -162 19l-68 -109l201 -12q299 -18 391 -51 q150 -49 168 -199q4 -25 4 -55q0 -176 -147.5 -272.5t-415.5 -96.5q-512 0 -512 256zM291 -164q0 -106 248 -106q281 0 280 118q0 25 -11 39.5t-42 21.5t-52.5 10t-70.5 5l-299 21q-53 -66 -53 -109zM373 696q0 -170 190 -170q86 0 139.5 47.5t53.5 126.5q0 90 -49.5 137.5 t-137.5 47.5q-90 0 -143 -46.5t-53 -142.5z" />
<glyph unicode="h" horiz-adv-x="1277" d="M39 1380l22 166h422v-579l11 -2q150 123 327 122q158 0 227.5 -82.5t69.5 -248.5v-539q0 -25 5 -32t28 -9l102 -14v-162h-444v668q0 174 -108.5 174t-213.5 -76v-549q0 -25 5.5 -32t27.5 -9l98 -14v-162h-565v162l92 14q20 2 26.5 10.5t6.5 30.5v1081q0 35 -26 43z" />
<glyph unicode="i" horiz-adv-x="647" d="M41 0v162l104 14q20 2 26.5 10.5t6.5 30.5v602q0 35 -26 43l-111 39l22 166h424v-850q0 -25 5.5 -32t27.5 -9l105 -14v-162h-584zM121 1415q0 88 48 134t136 46q90 0 138.5 -46t48.5 -134t-49.5 -136t-137.5 -48t-136 48t-48 136z" />
<glyph unicode="j" horiz-adv-x="622" d="M-215 -352l88 170q86 -53 178 -54q66 0 94.5 38t28.5 141v876q0 35 -27 43l-116 39l24 166h428v-1176q0 -348 -356 -348q-113 0 -206 34t-136 71zM117 1415q0 86 49 133t137 47q90 0 138 -46t48 -134t-49 -136t-137 -48t-137 48t-49 136z" />
<glyph unicode="k" horiz-adv-x="1269" d="M39 1380l22 166h426v-874l375 395h283v-162l-107 -20q-27 -4 -51 -31l-145 -154l262 -489q16 -31 61 -37l90 -14v-160h-397l-260 522l-111 -121v-184q0 -25 5.5 -32t27.5 -9l123 -14v-162h-600v162l102 14q20 2 26.5 10.5t6.5 30.5v1081q0 35 -26 43z" />
<glyph unicode="l" horiz-adv-x="647" d="M39 1380l22 166h426v-1329q0 -25 5.5 -32t27.5 -9l101 -14v-162h-578v162l102 14q20 2 26.5 10.5t6.5 30.5v1081q0 35 -26 43z" />
<glyph unicode="m" horiz-adv-x="1820" d="M41 901l22 166h361l16 -106l11 -3q158 129 327 129q176 0 250 -122q156 123 330 122q162 0 231.5 -82.5t69.5 -263.5v-524q0 -25 5 -33t28 -10l102 -12v-162h-444v662q0 51 -5.5 83.5t-33 62.5t-76.5 30q-82 0 -166 -56q6 -49 6 -100v-465q0 -27 5 -34t28 -9l82 -12v-162 h-424v672q0 35 -3 58.5t-12.5 51t-33 42t-60.5 14.5q-92 0 -170 -66v-555q0 -25 4.5 -31t28.5 -10l101 -14v-162h-568v162l92 14q20 2 26.5 10.5t6.5 30.5v602q0 35 -26 43z" />
<glyph unicode="n" horiz-adv-x="1277" d="M41 901l25 166h358l16 -106l9 -5q176 131 360 131q164 0 236.5 -87t72.5 -261v-522q0 -25 5 -32t28 -9l102 -14v-162h-444v662q0 59 -5 91.5t-29.5 60.5t-74.5 28q-53 0 -114.5 -23.5t-98.5 -52.5v-549q0 -25 5.5 -32t27.5 -9l98 -14v-162h-565v164l92 12q20 2 26.5 10.5 t6.5 30.5v602q0 35 -26 43z" />
<glyph unicode="o" horiz-adv-x="1189" d="M55 526q0 262 139.5 411.5t413.5 149.5q270 0 398.5 -144t128.5 -394q0 -268 -139.5 -421t-413.5 -153q-268 0 -397.5 148.5t-129.5 402.5zM379 537q0 -346 217 -347q215 0 215 349q0 176 -51 251.5t-156 75.5q-225 1 -225 -329z" />
<glyph unicode="p" horiz-adv-x="1259" d="M35 901l22 166h361l18 -104l10 -5q160 129 349 129q182 0 287.5 -125.5t105.5 -398.5q0 -80 -11.5 -155.5t-41 -156.5t-74.5 -140.5t-122 -97.5t-173 -38q-164 0 -293 105v-293q0 -25 5 -32t28 -9l213 -18v-162h-668v164l82 12q23 4 30 12t7 31v1034q0 35 -27 43z M477 293q90 -78 193 -78q195 0 194 332q0 297 -174 297q-104 0 -213 -74v-477z" />
<glyph unicode="q" horiz-adv-x="1220" d="M72 512q0 293 126 434t312 141q162 0 297 -116l31 96h268q-16 -154 -16 -332v-954q0 -23 5 -30t27 -9l97 -14v-162h-623v164l176 14q25 2 33 9t8 28v321l-10 4q-154 -131 -324 -131q-190 0 -298.5 130.5t-108.5 406.5zM393 526q0 -309 193 -309q96 0 194 84v483 q-96 66 -180 66q-104 0 -155.5 -89.5t-51.5 -234.5z" />
<glyph unicode="r" horiz-adv-x="968" d="M41 901l22 166h361l25 -164h12q119 184 289 184q113 0 178 -18v-373l-246 9l-20 108q-4 23 -27 23q-66 0 -148 -72v-543q0 -25 5.5 -32t27.5 -9l203 -16v-164h-670v166l92 12q20 2 26.5 10.5t6.5 30.5v600q0 35 -26 43z" />
<glyph unicode="s" horiz-adv-x="997" d="M74 49v297l219 -16l20 -117q2 -27 25 -31q61 -20 158 -20q170 0 170 106q0 55 -47.5 82t-139.5 43l-77.5 14.5t-75 18.5t-77 27.5t-64.5 40t-56 57.5t-32.5 77t-14.5 101q0 178 130 268t323 90q225 0 376 -59v-297l-219 14l-20 107q-2 25 -21 29q-53 16 -131 16 q-160 0 -160 -104q0 -37 32 -61.5t70 -36t107 -27.5q18 -4 29 -6q74 -16 124 -35t106.5 -54.5t85 -97t28.5 -147.5q0 -178 -127 -265.5t-336 -87.5q-127 0 -249.5 25.5t-155.5 48.5z" />
<glyph unicode="t" horiz-adv-x="892" d="M16 862v182q135 14 196.5 90t78.5 244h194v-291q0 -20 17 -20h289v-205h-306v-489q0 -94 29 -131t111 -37q78 0 166 33l55 -181q-168 -82 -334 -82q-180 0 -258 78t-78 252v537q0 20 -16 20h-144z" />
<glyph unicode="u" horiz-adv-x="1275" d="M41 899l20 168h420v-678q0 -96 22.5 -134t86.5 -38q109 0 211 94v527q0 25 -5 30.5t-28 10.5l-88 20l22 168h408v-850q0 -23 5 -30t24 -9l102 -14v-164h-381l-16 111l-10 2q-53 -41 -94.5 -65.5t-115 -48.5t-155.5 -24q-158 0 -227.5 89.5t-69.5 271.5v500q0 25 -5 31.5 t-28 11.5z" />
<glyph unicode="v" horiz-adv-x="1275" d="M6 901l33 166h555v-166l-131 -16l209 -584h14l217 584l-133 16l27 166h473v-166l-74 -12q-41 -10 -51 -35l-326 -854h-358l-326 848q-10 27 -43 35z" />
<glyph unicode="w" horiz-adv-x="1800" d="M6 901l33 166h518v-170l-115 -12l164 -576h15l182 731h309l176 -731h12l154 576l-117 12l27 170h430v-166l-74 -14q-39 -6 -49 -41l-252 -846h-323l-160 686h-12l-162 -686h-369l-258 848q-8 27 -43 35z" />
<glyph unicode="x" horiz-adv-x="1234" d="M27 0v160l92 18q27 4 53 35l270 299l-278 332q-25 27 -49 35l-82 22l20 166h545v-166l-100 -16l151 -191l168 191l-112 16l20 166h453v-166l-95 -20q-12 -4 -51 -39l-250 -277l287 -350q33 -33 53 -37l92 -16v-162h-581v160l96 18l-156 205l-170 -203l115 -18v-162h-491z " />
<glyph unicode="y" horiz-adv-x="1267" d="M6 901l33 166h543v-166l-129 -16l227 -541h14l217 541l-133 16l27 166h457v-166l-66 -12q-39 -6 -51 -35l-451 -1102l213 -22v-164h-682v166l160 18q33 2 51 45l88 195l-391 856q-8 27 -43 35z" />
<glyph unicode="z" horiz-adv-x="1058" d="M70 721v346h899v-176l-539 -701h301q18 0 23 27l24 141l223 11v-369h-929v172l549 702h-287q-18 0 -23 -26l-24 -115z" />
<glyph unicode="{" horiz-adv-x="677" d="M35 510v162q76 4 109.5 35.5t33.5 115.5q0 78 -14 203t-14 178q0 160 97 220.5t343 64.5l20 -164q-86 -20 -115.5 -47t-29.5 -100q0 -51 16.5 -170t16.5 -185q0 -178 -129 -233q129 -55 129 -232q0 -63 -16.5 -182t-16.5 -170q0 -74 29.5 -100.5t115.5 -46.5l-20 -164 q-246 4 -343 64.5t-97 220.5q0 53 14 177t14 201q0 84 -33.5 116t-109.5 36z" />
<glyph unicode="|" horiz-adv-x="573" d="M145 -293v1839h281v-1839h-281z" />
<glyph unicode="}" horiz-adv-x="677" d="M68 -141q86 20 115.5 46.5t29.5 100.5q0 51 -16.5 170t-16.5 182q0 176 129 232q-129 55 -129 233q0 66 16.5 184.5t16.5 170.5q0 74 -29.5 100.5t-115.5 46.5l20 164q246 -4 343 -64.5t97 -220.5q0 -53 -14 -178t-14 -203q0 -84 33.5 -115.5t109.5 -35.5v-162 q-76 -4 -109.5 -36t-33.5 -116q0 -78 14 -201.5t14 -176.5q0 -160 -97 -220.5t-343 -64.5z" />
<glyph unicode="~" horiz-adv-x="1073" d="M47 664q33 121 101.5 196.5t162.5 75.5q82 0 231.5 -47t213.5 -47q47 0 69.5 21.5t42.5 78.5l160 -59q-25 -147 -80 -218t-151 -71q-78 0 -237 47t-216 47q-51 0 -83 -20.5t-62 -77.5z" />
<glyph unicode="&#xa1;" horiz-adv-x="569" d="M109 907.5q0 159.5 176 159.5t176 -159.5t-176 -159.5t-176 159.5zM119 -78l37 719h258l35 -719v-362h-330v362z" />
<glyph unicode="&#xa2;" horiz-adv-x="1060" d="M86 582q0 209 101.5 341t285.5 167v217h258v-209q150 -18 260 -80v-307l-211 10l-20 121q-6 29 -27 35q-39 14 -102 14q-213 0 -213 -297q0 -164 51 -239.5t162 -75.5q70 0 106 12q16 6 21 31l24 129l211 8v-307q-113 -68 -278 -80v-209h-256v217q-373 68 -373 502z" />
<glyph unicode="&#xa3;" horiz-adv-x="1153" d="M59 184q94 55 121 122t27 249v16h-144v226h144v84q0 461 483 460q68 0 122 -7t110.5 -29.5t94.5 -58.5t61.5 -97.5t23.5 -144.5l-281 -37q0 78 -27.5 115.5t-99.5 37.5q-180 0 -180 -205v-118h299v-226h-299q0 -129 -25.5 -216t-95.5 -156h428q20 0 25 24l33 162h217 v-385h-1004z" />
<glyph unicode="&#xa4;" horiz-adv-x="1167" d="M-16 158l180 182q-49 96 -49 231q0 121 53 215l-83 84l-95 97l168 170l168 -170q106 70 258 69q145 0 252 -65l163 164l162 -166l-172 -172q49 -113 49 -217q0 -125 -59 -240l180 -180l-170 -166l-178 176q-106 -61 -240 -61q-150 0 -249 59l-78 -78l-97 -96zM371 571.5 q0 -106.5 52 -174t157 -67.5q96 0 150 68.5t54 172.5q0 113 -53 175.5t-156 62.5q-100 0 -152 -65.5t-52 -172z" />
<glyph unicode="&#xa5;" horiz-adv-x="1239" d="M-10 1143l20 160h584v-160l-133 -19l196 -317h13l207 317l-140 19l21 160h491v-160l-86 -23q-31 -8 -51 -39l-272 -401h209v-240h-265v-223q0 -23 5.5 -30t27.5 -9l217 -16v-162h-803v162l205 14q16 2 23.5 11.5t8.5 19.5t1 33v200h-254v240h197l-281 405q-16 27 -49 35z " />
<glyph unicode="&#xa6;" horiz-adv-x="573" d="M145 -293v795h281v-795h-281zM145 836v710h281v-710h-281z" />
<glyph unicode="&#xa7;" horiz-adv-x="1165" d="M135 455q0 166 150 280q-102 82 -103 226q0 164 123 249.5t311 85.5q233 0 377 -61v-297l-219 12l-20 115q-4 20 -23 27q-51 18 -129 18q-74 0 -115 -30.5t-41 -82t60.5 -82t145.5 -50t171 -49.5t146.5 -100.5t60.5 -180.5q0 -88 -41 -160t-98 -113q92 -74 92 -205 q0 -176 -120 -262t-322 -86q-123 0 -246 25.5t-156 48.5v291l219 -17l21 -118q4 -18 24 -29q59 -25 154 -25q162 0 162 111q0 57 -60.5 88t-146.5 48.5t-171 44t-145.5 96t-60.5 182.5zM385 524q0 -55 47 -82.5t141 -54.5l123 -35q82 49 82 133q0 29 -14 49.5t-49 37 t-60.5 24.5l-83.5 25l-112 30q-74 -47 -74 -127z" />
<glyph unicode="&#xa8;" d="M150 1364q0 66 39.5 104.5t105 38.5t105.5 -38.5t40 -104.5t-40 -104.5t-105.5 -38.5t-105 40t-39.5 103zM575 1364q0 66 40 104.5t105.5 38.5t105.5 -38.5t40 -104.5t-40 -104.5t-105.5 -38.5t-105.5 40t-40 103z" />
<glyph unicode="&#xa9;" horiz-adv-x="1576" d="M102 625q0 313 197 498.5t494 185.5q315 0 498.5 -177.5t183.5 -478.5q0 -307 -190.5 -496.5t-496.5 -189.5q-330 0 -508 183.5t-178 474.5zM268 627q0 -240 138.5 -376t386.5 -136q242 0 381 141t139 385q0 248 -143.5 384t-376.5 136q-231 0 -378 -142t-147 -392z M428 645q0 180 100.5 288.5t290.5 108.5q121 0 230 -41v-227l-111 8l-16 84q-6 25 -21 31q-35 14 -92 14q-199 0 -199 -270q0 -266 211 -266q51 0 80 10q14 6 19 23l24 104h103v-217q-84 -49 -234 -49q-199 0 -292 107.5t-93 291.5z" />
<glyph unicode="&#xaa;" horiz-adv-x="813" d="M61 758q0 100 67 149t206 60l145 12v72q0 45 -15 68.5t-67 23.5q-47 0 -65.5 -16.5t-18.5 -67.5l-225 16q0 215 315 215q168 0 240 -53t72 -190v-316q0 -16 4 -20t18 -6l66 -11v-119h-281l-12 72l-8 2q-94 -90 -232 -90q-209 0 -209 199zM307 776q0 -55 68 -55 q57 0 104 37v102l-69 -6q-103 -8 -103 -78z" />
<glyph unicode="&#xab;" horiz-adv-x="966" d="M72 526l182 310h250l-164 -285q-12 -18 -2 -39l156 -301h-246zM463 526l182 310h250l-164 -285q-12 -18 -2 -39l156 -301h-246z" />
<glyph unicode="&#xac;" horiz-adv-x="1167" d="M174 545v239h793v-432h-228v193h-565z" />
<glyph unicode="&#xad;" horiz-adv-x="636" d="M41 465v260h555v-260h-555z" />
<glyph unicode="&#xae;" horiz-adv-x="927" d="M82 969q0 172 109.5 277.5t273.5 105.5q174 0 277.5 -101.5t103.5 -267.5q0 -168 -106.5 -274.5t-276.5 -106.5q-182 0 -281.5 102.5t-99.5 264.5zM182 971q0 -129 76 -203t207 -74t205.5 76t74.5 207q0 135 -77.5 209t-202.5 74q-123 0 -203 -78t-80 -211zM295 786v50 l29 4q10 2 10 14v252q0 12 -10 14l-29 4v54h182q141 0 141 -111q0 -80 -71 -104q27 -8 39 -39l28 -70q4 -10 17 -12l31 -6v-50h-125l-41 109q-8 25 -17.5 34t-25.5 9h-25v-84q0 -10 10 -12l31 -6v-50h-174zM428 1006h29q68 0 67 55q0 47 -61 47h-35v-102z" />
<glyph unicode="&#xaf;" d="M186 1227v205h650v-205h-650z" />
<glyph unicode="&#xb0;" horiz-adv-x="618" d="M74 1362q0 106 68.5 171.5t169 65.5t167 -63t66.5 -168q0 -106 -65.5 -170.5t-168.5 -64.5q-106 0 -171.5 63.5t-65.5 165.5zM213 1362q0 -43 27.5 -70.5t70.5 -27.5q41 0 68 29.5t27 74.5t-27 72.5t-68 27.5t-69.5 -29.5t-28.5 -76.5z" />
<glyph unicode="&#xb1;" horiz-adv-x="1167" d="M186 0v238h793v-238h-793zM186 543v237h273v287h246v-287h274v-237h-274v-264h-246v264h-273z" />
<glyph unicode="&#xb2;" horiz-adv-x="811" d="M53 717v147l273 314q88 102 114.5 144t26.5 83q0 68 -84 68q-92 0 -92 -115l-236 22q0 272 351 273q324 0 323 -232q0 -74 -33.5 -136t-99.5 -138l-240 -275h189q8 0 16 19l17 98h182v-272h-707z" />
<glyph unicode="&#xb3;" horiz-adv-x="827" d="M33 825l125 152q100 -88 213 -88q127 0 127 108q0 98 -125 99q-47 0 -99 -11v168l62 7q76 8 112.5 35.5t36.5 93.5q0 84 -84 84q-86 0 -88 -107l-241 23q0 264 346 264q328 0 327 -236q0 -80 -44 -139t-117 -80v-4q186 -35 186 -215q0 -131 -106.5 -205t-272.5 -74 q-111 0 -207 34t-151 91z" />
<glyph unicode="&#xb4;" d="M281 1251l313 357l168 -160l-367 -299z" />
<glyph unicode="&#xb5;" horiz-adv-x="1288" d="M166 -360v1427h309v-678q0 -47 4 -76.5t32 -60.5t79 -31q109 0 205 90v756h309v-850q0 -37 29 -39l102 -14v-164h-379l-16 111h-13q-113 -135 -264 -136q-61 0 -110 25l-7 -8l39 -352h-319z" />
<glyph unicode="&#xb6;" horiz-adv-x="1302" d="M70 811q0 137 44 237.5t124.5 159t182 86t226.5 27.5h563v-162l-137 -16q-23 -2 -28 -9.5t-5 -29.5v-1172q0 -23 6.5 -28.5t26.5 -9.5l137 -17v-149h-376v1405h-115v-1405h-371v149l133 17q31 4 31 38v406q-221 14 -331.5 137t-110.5 336z" />
<glyph unicode="&#xb7;" horiz-adv-x="487" d="M68 661.5q0 159.5 176 159.5t176 -159.5t-176 -159.5t-176 159.5z" />
<glyph unicode="&#xb8;" d="M281 -518l12 139q33 -4 51 -4q141 0 141 102q0 82 -135 86l33 256l147 -16l-18 -137q68 -12 115 -58.5t47 -125.5q0 -106 -77 -177t-232 -71q-59 0 -84 6z" />
<glyph unicode="&#xb9;" horiz-adv-x="630" d="M61 1493l21 139h387v-745q0 -16 4 -20.5t19 -6.5l108 -12v-131h-534v131l102 12q27 2 27 27v553q0 23 -19 28z" />
<glyph unicode="&#xba;" horiz-adv-x="843" d="M53 915q0 174 100.5 274.5t288.5 100.5q190 0 279.5 -95t89.5 -259q0 -176 -95 -276.5t-290 -100.5q-188 0 -280.5 96t-92.5 260zM305 928q0 -113 33 -160t96.5 -47t95 47t31.5 162q0 201 -123 200q-133 1 -133 -202z" />
<glyph unicode="&#xbb;" horiz-adv-x="966" d="M72 836h250l182 -312l-176 -313h-248l158 295q10 20 -2 39zM463 836h250l182 -312l-176 -313h-248l158 295q10 20 -2 39z" />
<glyph unicode="&#xbc;" horiz-adv-x="2007" d="M119 1352l20 139h387v-746q0 -16 4.5 -20t18.5 -6l108 -12v-132h-534v132l102 12q27 2 27 26v553q0 23 -19 29zM473 -35l733 1518h271l-732 -1518h-272zM1118 176v166l398 571h262v-561h110v-174h-110v-178h-248v176h-412zM1325 352h205v307h-6z" />
<glyph unicode="&#xbd;" horiz-adv-x="2007" d="M115 1352l20 139h387v-746q0 -16 4 -20t19 -6l108 -12v-132h-534v132l102 12q27 2 27 26v553q0 23 -19 29zM434 -35l733 1518h271l-731 -1518h-273zM1184 0v147l272 314q88 102 114.5 144t26.5 83q0 68 -84 68q-92 0 -92 -115l-235 23q0 272 350 272q324 0 324 -231 q0 -74 -34 -136.5t-100 -138.5l-239 -274h188q8 0 17 18l16 98h182v-272h-706z" />
<glyph unicode="&#xbe;" horiz-adv-x="2007" d="M84 684l125 152q100 -88 213 -88q127 0 127 108q0 98 -125 98q-47 0 -98 -10v168l61 6q76 8 113 36t37 93q0 84 -84 84q-86 0 -88 -106l-242 22q0 264 346 264q328 0 328 -235q0 -80 -44 -139.5t-118 -79.5v-4q186 -35 186 -215q0 -131 -106.5 -205t-272.5 -74 q-111 0 -207 34t-151 91zM539 -35l733 1518h270l-731 -1518h-272zM1153 176v166l397 571h262v-561h111v-174h-111v-178h-247v176h-412zM1360 352h205v307h-6z" />
<glyph unicode="&#xbf;" horiz-adv-x="1081" d="M76 -18q0 199 113.5 321.5t330.5 149.5v188h309v-373q-70 -6 -112.5 -11t-106 -23.5t-99.5 -46t-63.5 -78t-27.5 -117.5q0 -86 43 -133t123 -47q78 0 137 24q23 8 27 41l18 131l250 19v-377q-236 -90 -447 -90q-495 0 -495 422zM500 907.5q0 159.5 174 159.5 q176 0 176 -159.5t-176 -159.5q-174 0 -174 159.5z" />
<glyph unicode="&#xc0;" horiz-adv-x="1554" d="M6 0v160l90 22q41 10 51 39l449 1262h362l447 -1266q8 -25 49 -35l94 -22v-160h-647v160l168 18l-74 213h-508l-71 -213l162 -18v-160h-572zM496 1753l104 203l422 -250l-72 -137zM551 612h383l-182 557h-13z" />
<glyph unicode="&#xc1;" horiz-adv-x="1554" d="M6 0v160l90 22q41 10 51 39l449 1262h362l447 -1266q8 -25 49 -35l94 -22v-160h-647v160l168 18l-74 213h-508l-71 -213l162 -18v-160h-572zM551 612h383l-182 557h-13zM553 1706l422 250l104 -203l-454 -182z" />
<glyph unicode="&#xc2;" horiz-adv-x="1554" d="M6 0v160l90 22q41 10 51 39l449 1262h362l447 -1266q8 -25 49 -35l94 -22v-160h-647v160l168 18l-74 213h-508l-71 -213l162 -18v-160h-572zM424 1686l248 229h213l248 -229l-113 -115l-242 166l-241 -166zM551 612h383l-182 557h-13z" />
<glyph unicode="&#xc3;" horiz-adv-x="1554" d="M6 0v160l90 22q41 10 51 39l449 1262h362l447 -1266q8 -25 49 -35l94 -22v-160h-647v160l168 18l-74 213h-508l-71 -213l162 -18v-160h-572zM410 1669l61 105q61 102 135 102q45 0 129 -25q145 -39 203 -51q23 -6 33 8l59 64l121 -74l-45 -82q-35 -63 -63.5 -90 t-71.5 -27q-29 0 -148 29q-197 49 -200 49q-14 0 -33 -16l-68 -64zM551 612h383l-182 557h-13z" />
<glyph unicode="&#xc4;" horiz-adv-x="1554" d="M6 0v160l90 22q41 10 51 39l449 1262h362l447 -1266q8 -25 49 -35l94 -22v-160h-647v160l168 18l-74 213h-508l-71 -213l162 -18v-160h-572zM418 1743q0 63 40 102t105.5 39t105.5 -39t40 -102q0 -66 -40 -105t-105.5 -39t-105.5 39t-40 105zM551 612h383l-182 557h-13z M844 1743q0 63 40 102t105.5 39t105.5 -39t40 -102q0 -66 -40 -105t-105.5 -39t-105.5 39t-40 105z" />
<glyph unicode="&#xc5;" horiz-adv-x="1554" d="M6 0v160l90 22q41 10 51 39l449 1260q-39 55 -39 127q0 98 64.5 159.5t156.5 61.5t155.5 -60.5t63.5 -156.5q0 -74 -39 -129l447 -1266q8 -25 49 -35l94 -22v-160h-647v160l168 18l-74 213h-508l-71 -213l162 -18v-160h-572zM551 612h383l-182 557h-13zM700 1612 q0 -82 78 -82q76 0 76 82q0 86 -76 86q-78 0 -78 -86z" />
<glyph unicode="&#xc6;" horiz-adv-x="2031" d="M6 0v160l86 22q41 10 70 68l495 1050l-151 21v162h1409v-414l-225 10l-29 150q-8 33 -49 33h-307v-416h479v-228h-479v-399h366q29 0 33 23l33 180h223v-422h-1120v160l114 12q18 2 27.5 6t14.5 14.5t5 28.5v397h-389l-204 -440l159 -18v-160h-561zM705 848h296v414h-100 z" />
<glyph unicode="&#xc7;" horiz-adv-x="1386" d="M63 748q0 342 197 551.5t565 209.5q287 0 465 -116v-402l-225 19l-33 200q-6 29 -33 37q-78 25 -182 25q-199 0 -312.5 -134t-113.5 -390q0 -266 108.5 -402.5t303.5 -136.5q119 0 205 27q18 4 25 12t11 31l31 190h219v-381q-158 -96 -446 -111l-8 -69 q68 -12 114.5 -58.5t46.5 -125.5q0 -106 -76.5 -177t-232.5 -71q-59 0 -84 6l13 139q33 -4 51 -4q141 0 141 102q0 82 -135 86l22 175q-637 41 -637 768z" />
<glyph unicode="&#xc8;" horiz-adv-x="1284" d="M78 0v160l129 14q20 2 26.5 10.5t6.5 30.5v1051q0 25 -6.5 32t-26.5 9l-129 14v162h1089v-414l-225 10l-29 156q-6 27 -34 27h-322v-404h479v-227h-479v-412h367q29 0 32 23l33 180h223v-422h-1134zM365 1753l104 203l422 -250l-72 -137z" />
<glyph unicode="&#xc9;" horiz-adv-x="1284" d="M78 0v160l129 14q20 2 26.5 10.5t6.5 30.5v1051q0 25 -6.5 32t-26.5 9l-129 14v162h1089v-414l-225 10l-29 156q-6 27 -34 27h-322v-404h479v-227h-479v-412h367q29 0 32 23l33 180h223v-422h-1134zM422 1706l422 250l104 -203l-454 -182z" />
<glyph unicode="&#xca;" horiz-adv-x="1284" d="M78 0v160l129 14q20 2 26.5 10.5t6.5 30.5v1051q0 25 -6.5 32t-26.5 9l-129 14v162h1089v-414l-225 10l-29 156q-6 27 -34 27h-322v-404h479v-227h-479v-412h367q29 0 32 23l33 180h223v-422h-1134zM293 1686l248 229h213l247 -229l-112 -115l-242 166l-241 -166z" />
<glyph unicode="&#xcb;" horiz-adv-x="1284" d="M78 0v160l129 14q20 2 26.5 10.5t6.5 30.5v1051q0 25 -6.5 32t-26.5 9l-129 14v162h1089v-414l-225 10l-29 156q-6 27 -34 27h-322v-404h479v-227h-479v-412h367q29 0 32 23l33 180h223v-422h-1134zM287 1743q0 63 40 102t105.5 39t105.5 -39t40 -102q0 -66 -40 -105 t-105.5 -39t-105.5 39t-40 105zM713 1743q0 63 40 102t105.5 39t105.5 -39t40 -102q0 -66 -40 -105t-105.5 -39t-105.5 39t-40 105z" />
<glyph unicode="&#xcc;" horiz-adv-x="827" d="M74 0v160l149 14q20 2 26.5 9t6.5 32v1049q0 25 -6 32t-27 9l-149 14v164h688v-164l-158 -16q-23 -2 -28 -9.5t-5 -29.5v-1047q0 -25 5.5 -32t27.5 -9l158 -16v-160h-688zM135 1753l105 203l422 -250l-72 -137z" />
<glyph unicode="&#xcd;" horiz-adv-x="827" d="M74 0v160l149 14q20 2 26.5 9t6.5 32v1049q0 25 -6 32t-27 9l-149 14v164h688v-164l-158 -16q-23 -2 -28 -9.5t-5 -29.5v-1047q0 -25 5.5 -32t27.5 -9l158 -16v-160h-688zM193 1706l421 250l105 -203l-455 -182z" />
<glyph unicode="&#xce;" horiz-adv-x="827" d="M63 1686l248 229h213l248 -229l-113 -115l-241 166l-242 -166zM74 0v160l149 14q20 2 26.5 9t6.5 32v1049q0 25 -6 32t-27 9l-149 14v164h688v-164l-158 -16q-23 -2 -28 -9.5t-5 -29.5v-1047q0 -25 5.5 -32t27.5 -9l158 -16v-160h-688z" />
<glyph unicode="&#xcf;" horiz-adv-x="827" d="M57 1743q0 63 40 102t105.5 39t105.5 -39t40 -102q0 -66 -40 -105t-105.5 -39t-105.5 39t-40 105zM74 0v160l149 14q20 2 26.5 9t6.5 32v1049q0 25 -6 32t-27 9l-149 14v164h688v-164l-158 -16q-23 -2 -28 -9.5t-5 -29.5v-1047q0 -25 5.5 -32t27.5 -9l158 -16v-160h-688z M483 1743q0 63 40 102t105.5 39t105.5 -39t40 -102q0 -66 -40 -105t-105.5 -39t-105.5 39t-40 105z" />
<glyph unicode="&#xd0;" horiz-adv-x="1540" d="M78 0v164l129 14q20 2 26.5 9.5t6.5 31.5v416h-131v219h131v412q0 23 -6.5 31t-26.5 10l-129 14v162h663q375 0 555.5 -187.5t180.5 -531.5q0 -354 -192.5 -559t-577.5 -205h-629zM557 221h117q481 0 481 524q0 279 -110.5 398t-358.5 119h-129v-408h291v-219h-291v-414z " />
<glyph unicode="&#xd1;" horiz-adv-x="1693" d="M78 0v160l129 14q20 2 26.5 10.5t6.5 30.5v1053q0 25 -6.5 32t-26.5 9l-129 14v160h508l643 -1071v852q0 25 -6 32t-27 9l-129 14v164h569v-164l-137 -16q-23 -2 -28 -9.5t-5 -29.5v-1264h-336l-653 1069v-852q0 -25 5 -32t28 -9l137 -16v-160h-569zM461 1669l61 105 q61 102 135 102q47 0 129 -25q145 -39 203 -51q23 -6 33 8l59 64l121 -74l-45 -82q-35 -63 -63.5 -90t-71.5 -27q-29 0 -148 29q-197 49 -200 49q-14 0 -33 -16l-68 -64z" />
<glyph unicode="&#xd2;" horiz-adv-x="1554" d="M63 737q0 342 190.5 557t543.5 215q346 0 520 -207.5t174 -537.5q0 -371 -183.5 -580t-539.5 -209t-530.5 206t-174.5 556zM391 743q0 -516 389 -516q385 0 385 518q0 506 -372 506q-184 0 -293 -127t-109 -381zM510 1761l104 203l422 -250l-71 -137z" />
<glyph unicode="&#xd3;" horiz-adv-x="1554" d="M63 737q0 342 190.5 557t543.5 215q346 0 520 -207.5t174 -537.5q0 -371 -183.5 -580t-539.5 -209t-530.5 206t-174.5 556zM391 743q0 -516 389 -516q385 0 385 518q0 506 -372 506q-184 0 -293 -127t-109 -381zM567 1714l422 250l105 -203l-455 -182z" />
<glyph unicode="&#xd4;" horiz-adv-x="1554" d="M63 737q0 342 190.5 557t543.5 215q346 0 520 -207.5t174 -537.5q0 -371 -183.5 -580t-539.5 -209t-530.5 206t-174.5 556zM391 743q0 -516 389 -516q385 0 385 518q0 506 -372 506q-184 0 -293 -127t-109 -381zM438 1694l248 229h213l248 -229l-113 -115l-241 166 l-242 -166z" />
<glyph unicode="&#xd5;" horiz-adv-x="1554" d="M63 737q0 342 190.5 557t543.5 215q346 0 520 -207.5t174 -537.5q0 -371 -183.5 -580t-539.5 -209t-530.5 206t-174.5 556zM391 743q0 -516 389 -516q385 0 385 518q0 506 -372 506q-184 0 -293 -127t-109 -381zM424 1677l61 105q61 102 136 102q47 0 129 -24 q145 -39 202 -52q23 -6 33 9l59 63l121 -74l-45 -82q-35 -63 -63.5 -89.5t-71.5 -26.5q-29 0 -147 28l-201 50q-14 0 -33 -17l-67 -63z" />
<glyph unicode="&#xd6;" horiz-adv-x="1554" d="M63 737q0 342 190.5 557t543.5 215q346 0 520 -207.5t174 -537.5q0 -371 -183.5 -580t-539.5 -209t-530.5 206t-174.5 556zM391 743q0 -516 389 -516q385 0 385 518q0 506 -372 506q-184 0 -293 -127t-109 -381zM432 1751q0 63 40 102t105.5 39t105.5 -38.5t40 -102.5 q0 -66 -40 -104.5t-105.5 -38.5t-105.5 38.5t-40 104.5zM858 1751q0 63 40 102t105.5 39t105.5 -38.5t40 -102.5q0 -66 -40 -104.5t-105.5 -38.5t-105.5 38.5t-40 104.5z" />
<glyph unicode="&#xd7;" horiz-adv-x="1167" d="M209 455l203 202l-203 205l172 172l203 -203l202 203l172 -172l-202 -205l202 -202l-172 -172l-202 202l-203 -202z" />
<glyph unicode="&#xd8;" horiz-adv-x="1554" d="M63 737q0 342 190.5 557t543.5 215q96 0 180 -18l53 125h244l-86 -207q152 -94 227.5 -262t75.5 -383q0 -371 -183.5 -580t-539.5 -209q-80 0 -174 15l-62 -150h-245l94 226q-318 175 -318 671zM391 743q0 -268 107 -397l376 897q-35 8 -81 8q-184 0 -293 -127t-109 -381 zM696 233q41 -6 84 -6q385 0 385 518q0 252 -96 381z" />
<glyph unicode="&#xd9;" horiz-adv-x="1607" d="M61 1321v162h648v-162l-138 -16q-23 -2 -27.5 -9.5t-4.5 -29.5v-670q0 -188 58 -275.5t218 -87.5q164 0 230.5 80t66.5 275v678q0 25 -6 32t-27 9l-129 14v162h606v-162l-137 -16q-23 -2 -28 -9.5t-5 -29.5v-736q0 -283 -151.5 -419t-431.5 -136q-303 0 -442.5 137.5 t-139.5 426.5v727q0 25 -6 32t-27 9zM551 1753l104 203l422 -250l-71 -137z" />
<glyph unicode="&#xda;" horiz-adv-x="1607" d="M61 1321v162h648v-162l-138 -16q-23 -2 -27.5 -9.5t-4.5 -29.5v-670q0 -188 58 -275.5t218 -87.5q164 0 230.5 80t66.5 275v678q0 25 -6 32t-27 9l-129 14v162h606v-162l-137 -16q-23 -2 -28 -9.5t-5 -29.5v-736q0 -283 -151.5 -419t-431.5 -136q-303 0 -442.5 137.5 t-139.5 426.5v727q0 25 -6 32t-27 9zM608 1706l422 250l105 -203l-455 -182z" />
<glyph unicode="&#xdb;" horiz-adv-x="1607" d="M61 1321v162h648v-162l-138 -16q-23 -2 -27.5 -9.5t-4.5 -29.5v-670q0 -188 58 -275.5t218 -87.5q164 0 230.5 80t66.5 275v678q0 25 -6 32t-27 9l-129 14v162h606v-162l-137 -16q-23 -2 -28 -9.5t-5 -29.5v-736q0 -283 -151.5 -419t-431.5 -136q-303 0 -442.5 137.5 t-139.5 426.5v727q0 25 -6 32t-27 9zM479 1686l248 229h213l248 -229l-113 -115l-241 166l-242 -166z" />
<glyph unicode="&#xdc;" horiz-adv-x="1607" d="M61 1321v162h648v-162l-138 -16q-23 -2 -27.5 -9.5t-4.5 -29.5v-670q0 -188 58 -275.5t218 -87.5q164 0 230.5 80t66.5 275v678q0 25 -6 32t-27 9l-129 14v162h606v-162l-137 -16q-23 -2 -28 -9.5t-5 -29.5v-736q0 -283 -151.5 -419t-431.5 -136q-303 0 -442.5 137.5 t-139.5 426.5v727q0 25 -6 32t-27 9zM473 1743q0 63 40 102t105.5 39t105.5 -39t40 -102q0 -66 -40 -105t-105.5 -39t-105.5 39t-40 105zM899 1743q0 63 40 102t105.5 39t105.5 -39t40 -102q0 -66 -40 -105t-105.5 -39t-105.5 39t-40 105z" />
<glyph unicode="&#xdd;" horiz-adv-x="1384" d="M6 1323l21 160h614v-160l-160 -18l248 -484h16l248 484l-157 18l20 160h522v-160l-86 -23q-39 -10 -51 -38l-371 -705v-340q0 -23 5.5 -30t27.5 -9l217 -16v-162h-803v162l205 14q20 2 26.5 9.5t6.5 31.5v336l-408 713q-14 23 -49 34zM498 1706l422 250l104 -203 l-455 -182z" />
<glyph unicode="&#xde;" horiz-adv-x="1329" d="M78 0v162l129 14q20 2 26.5 10.5t6.5 30.5v1047q0 25 -6.5 32t-26.5 9l-129 14v164h651v-164l-141 -14q-33 -2 -33 -39v-58h217q494 0 494 -411q0 -461 -561 -461h-150v-117q0 -25 5 -32t28 -9l293 -16v-162h-803zM555 559h102q59 0 103.5 8t88.5 29.5t68.5 69 t24.5 116.5q0 123 -69.5 165t-196.5 42h-121v-430z" />
<glyph unicode="&#xdf;" horiz-adv-x="1325" d="M41 0v162l100 14q20 2 26.5 10.5t6.5 30.5v897q0 242 130 349.5t392 107.5q481 0 482 -391q0 -141 -68 -226.5t-158 -119.5v-9q72 -14 122 -36.5t96.5 -66.5t69 -120t22.5 -182q0 -193 -99.5 -319t-296.5 -126q-186 0 -309 70l68 186q94 -43 170 -43q145 0 145 252 q0 137 -56.5 195.5t-160.5 60.5q-76 0 -119 -6v213l78 10q176 23 176 238q0 209 -180 209q-102 0 -148.5 -47t-46.5 -180v-1133h-442z" />
<glyph unicode="&#xe0;" horiz-adv-x="1140" d="M68 279q0 152 94 227.5t289 87.5l235 16v113q0 84 -24.5 123t-112.5 39q-82 0 -116 -25.5t-34 -111.5l-288 24q0 315 440 315q240 0 338 -79.5t98 -290.5v-498q0 -25 5 -32t28 -9l98 -16v-162h-377l-20 111l-10 2q-141 -137 -344 -138q-299 1 -299 304zM311 1448l168 160 l314 -357l-117 -102zM383 309q0 -113 117 -112q86 0 186 73v170l-139 -10q-90 -6 -127 -33t-37 -88z" />
<glyph unicode="&#xe1;" horiz-adv-x="1140" d="M68 279q0 152 94 227.5t289 87.5l235 16v113q0 84 -24.5 123t-112.5 39q-82 0 -116 -25.5t-34 -111.5l-288 24q0 315 440 315q240 0 338 -79.5t98 -290.5v-498q0 -25 5 -32t28 -9l98 -16v-162h-377l-20 111l-10 2q-141 -137 -344 -138q-299 1 -299 304zM324 1251l313 357 l168 -160l-367 -299zM383 309q0 -113 117 -112q86 0 186 73v170l-139 -10q-90 -6 -127 -33t-37 -88z" />
<glyph unicode="&#xe2;" horiz-adv-x="1140" d="M68 279q0 152 94 227.5t289 87.5l235 16v113q0 84 -24.5 123t-112.5 39q-82 0 -116 -25.5t-34 -111.5l-288 24q0 315 440 315q240 0 338 -79.5t98 -290.5v-498q0 -25 5 -32t28 -9l98 -16v-162h-377l-20 111l-10 2q-141 -137 -344 -138q-299 1 -299 304zM193 1257l251 265 h213l252 -265l-123 -106l-235 190l-236 -190zM383 309q0 -113 117 -112q86 0 186 73v170l-139 -10q-90 -6 -127 -33t-37 -88z" />
<glyph unicode="&#xe3;" horiz-adv-x="1140" d="M68 279q0 152 94 227.5t289 87.5l235 16v113q0 84 -24.5 123t-112.5 39q-82 0 -116 -25.5t-34 -111.5l-288 24q0 315 440 315q240 0 338 -79.5t98 -290.5v-498q0 -25 5 -32t28 -9l98 -16v-162h-377l-20 111l-10 2q-141 -137 -344 -138q-299 1 -299 304zM182 1264l62 104 q61 102 135 102q47 0 129 -24q145 -39 203 -51q23 -6 32 8l60 63l121 -73l-45 -82q-35 -63 -64 -90t-72 -27q-29 0 -147 29q-197 49 -201 49q-14 0 -33 -17l-67 -63zM383 309q0 -113 117 -112q86 0 186 73v170l-139 -10q-90 -6 -127 -33t-37 -88z" />
<glyph unicode="&#xe4;" horiz-adv-x="1140" d="M68 279q0 152 94 227.5t289 87.5l235 16v113q0 84 -24.5 123t-112.5 39q-82 0 -116 -25.5t-34 -111.5l-288 24q0 315 440 315q240 0 338 -79.5t98 -290.5v-498q0 -25 5 -32t28 -9l98 -16v-162h-377l-20 111l-10 2q-141 -137 -344 -138q-299 1 -299 304zM190 1364 q0 66 40 104.5t105.5 38.5t105.5 -38.5t40 -104.5t-40 -104.5t-105.5 -38.5t-105.5 40t-40 103zM383 309q0 -113 117 -112q86 0 186 73v170l-139 -10q-90 -6 -127 -33t-37 -88zM616 1364q0 66 40 104.5t105.5 38.5t105.5 -38.5t40 -104.5t-40 -104.5t-105.5 -38.5t-105.5 40 t-40 103z" />
<glyph unicode="&#xe5;" horiz-adv-x="1140" d="M68 279q0 152 94 227.5t289 87.5l235 16v113q0 84 -24.5 123t-112.5 39q-82 0 -116 -25.5t-34 -111.5l-288 24q0 315 440 315q240 0 338 -79.5t98 -290.5v-498q0 -25 5 -32t28 -9l98 -16v-162h-377l-20 111l-10 2q-141 -137 -344 -138q-299 1 -299 304zM346 1352 q0 92 59.5 148t145.5 56t144.5 -54t58.5 -144q0 -92 -56.5 -147.5t-146.5 -55.5t-147.5 54.5t-57.5 142.5zM383 309q0 -113 117 -112q86 0 186 73v170l-139 -10q-90 -6 -127 -33t-37 -88zM477 1356q0 -76 74 -76q72 0 72 78q0 76 -72 76q-74 0 -74 -78z" />
<glyph unicode="&#xe6;" horiz-adv-x="1685" d="M68 279q0 152 94 230.5t289 90.5l235 16v107q0 84 -24.5 123t-112.5 39q-82 0 -116 -25.5t-34 -111.5l-288 24q0 315 419 315q256 0 344 -137q111 137 326 137q203 0 310.5 -114.5t107.5 -370.5q0 -74 -6 -135h-625q6 -129 63.5 -190.5t176.5 -61.5q123 0 307 68l76 -203 q-215 -104 -422 -105q-240 0 -365 146q-201 -145 -409 -146q-346 1 -346 304zM383 307q0 -113 121 -112q119 0 221 90q-29 84 -37 159l-141 -10q-90 -6 -127 -35t-37 -92zM987 645h326q-2 127 -42 174t-112 47q-160 0 -172 -221z" />
<glyph unicode="&#xe7;" horiz-adv-x="1044" d="M55 518q0 279 152.5 424t408.5 145q113 0 212.5 -25.5t152.5 -60.5v-321l-219 10l-25 135q-4 27 -24 33q-43 14 -105 14q-100 0 -163.5 -77.5t-63.5 -245.5q0 -342 264 -342q119 0 256 59l80 -190q-154 -94 -365 -101l-8 -67q68 -12 115 -58.5t47 -125.5q0 -106 -77 -177 t-232 -71q-59 0 -84 6l12 139q33 -4 51 -4q141 0 142 102q0 82 -136 86l23 181q-207 33 -310.5 175t-103.5 357z" />
<glyph unicode="&#xe8;" horiz-adv-x="1075" d="M55 541q0 266 142.5 406t365.5 140q213 0 332 -119.5t119 -375.5q0 -55 -4 -137h-627q16 -242 242 -242q117 0 305 70l76 -203q-215 -104 -420 -105q-281 0 -406 153t-125 413zM313 1448l168 160l314 -357l-117 -102zM385 649h326q-2 217 -154 217q-156 0 -172 -217z" />
<glyph unicode="&#xe9;" horiz-adv-x="1075" d="M55 541q0 266 142.5 406t365.5 140q213 0 332 -119.5t119 -375.5q0 -55 -4 -137h-627q16 -242 242 -242q117 0 305 70l76 -203q-215 -104 -420 -105q-281 0 -406 153t-125 413zM326 1251l313 357l168 -160l-367 -299zM385 649h326q-2 217 -154 217q-156 0 -172 -217z" />
<glyph unicode="&#xea;" horiz-adv-x="1075" d="M55 541q0 266 142.5 406t365.5 140q213 0 332 -119.5t119 -375.5q0 -55 -4 -137h-627q16 -242 242 -242q117 0 305 70l76 -203q-215 -104 -420 -105q-281 0 -406 153t-125 413zM195 1257l251 265h213l252 -265l-123 -106l-235 190l-236 -190zM385 649h326 q-2 217 -154 217q-156 0 -172 -217z" />
<glyph unicode="&#xeb;" horiz-adv-x="1075" d="M55 541q0 266 142.5 406t365.5 140q213 0 332 -119.5t119 -375.5q0 -55 -4 -137h-627q16 -242 242 -242q117 0 305 70l76 -203q-215 -104 -420 -105q-281 0 -406 153t-125 413zM193 1364q0 66 39.5 104.5t105 38.5t105.5 -38.5t40 -104.5t-40 -104.5t-105.5 -38.5 t-105 40t-39.5 103zM385 649h326q-2 217 -154 217q-156 0 -172 -217zM618 1364q0 66 40 104.5t105.5 38.5t105.5 -38.5t40 -104.5t-40 -104.5t-105.5 -38.5t-105.5 40t-40 103z" />
<glyph unicode="&#xec;" horiz-adv-x="647" d="M41 0v162l104 14q20 2 26.5 10.5t6.5 30.5v602q0 35 -26 43l-111 39l22 166h424v-850q0 -25 5.5 -32t27.5 -9l105 -14v-162h-584zM47 1444l168 160l313 -357l-116 -102z" />
<glyph unicode="&#xed;" horiz-adv-x="647" d="M41 0v162l104 14q20 2 26.5 10.5t6.5 30.5v602q0 35 -26 43l-111 39l22 166h424v-850q0 -25 5.5 -32t27.5 -9l105 -14v-162h-584zM59 1247l314 357l168 -160l-367 -299z" />
<glyph unicode="&#xee;" horiz-adv-x="647" d="M-47 1266l227 264h213l228 -264l-123 -107l-211 191l-211 -191zM41 0v162l104 14q20 2 26.5 10.5t6.5 30.5v602q0 35 -26 43l-111 39l22 166h424v-850q0 -25 5.5 -32t27.5 -9l105 -14v-162h-584z" />
<glyph unicode="&#xef;" horiz-adv-x="647" d="M-63 1337q0 66 39.5 105t105 39t105.5 -39t40 -104.5t-40 -104.5t-105.5 -39t-105 40t-39.5 103zM41 0v162l104 14q20 2 26.5 10.5t6.5 30.5v602q0 35 -26 43l-111 39l22 166h424v-850q0 -25 5.5 -32t27.5 -9l105 -14v-162h-584zM342 1337q0 66 40 105t105.5 39 t105.5 -39t40 -104.5t-40 -104.5t-105.5 -39t-105.5 40t-40 103z" />
<glyph unicode="&#xf0;" horiz-adv-x="1198" d="M61 504q0 233 126 382.5t368 149.5q152 0 256 -82q-63 178 -207.5 276.5t-314.5 129.5l102 237q195 -37 338 -124l223 141l150 -223l-166 -101q195 -244 194 -635q0 -317 -132 -498.5t-418 -181.5q-260 0 -389.5 141.5t-129.5 387.5zM385 518q0 -166 51 -243.5t158 -77.5 q233 0 233 419q0 55 -10 134q-96 76 -213 75q-109 0 -164 -69.5t-55 -237.5z" />
<glyph unicode="&#xf1;" horiz-adv-x="1277" d="M41 901l25 166h358l16 -106l9 -5q176 131 360 131q164 0 236.5 -87t72.5 -261v-522q0 -25 5 -32t28 -9l102 -14v-162h-444v662q0 59 -5 91.5t-29.5 60.5t-74.5 28q-53 0 -114.5 -23.5t-98.5 -52.5v-549q0 -25 5.5 -32t27.5 -9l98 -14v-162h-565v164l92 12q20 2 26.5 10.5 t6.5 30.5v602q0 35 -26 43zM248 1264l61 104q61 102 135 102q47 0 129 -24q145 -39 203 -51q23 -6 33 8l59 63l121 -73l-45 -82q-35 -63 -63.5 -90t-71.5 -27q-29 0 -147 29q-197 49 -201 49q-14 0 -33 -17l-68 -63z" />
<glyph unicode="&#xf2;" horiz-adv-x="1189" d="M55 526q0 262 139.5 411.5t413.5 149.5q270 0 398.5 -144t128.5 -394q0 -268 -139.5 -421t-413.5 -153q-268 0 -397.5 148.5t-129.5 402.5zM369 1448l168 160l313 -357l-117 -102zM379 537q0 -346 217 -347q215 0 215 349q0 176 -51 251.5t-156 75.5q-225 1 -225 -329z " />
<glyph unicode="&#xf3;" horiz-adv-x="1189" d="M55 526q0 262 139.5 411.5t413.5 149.5q270 0 398.5 -144t128.5 -394q0 -268 -139.5 -421t-413.5 -153q-268 0 -397.5 148.5t-129.5 402.5zM379 537q0 -346 217 -347q215 0 215 349q0 176 -51 251.5t-156 75.5q-225 1 -225 -329zM381 1251l313 357l168 -160l-366 -299z " />
<glyph unicode="&#xf4;" horiz-adv-x="1189" d="M55 526q0 262 139.5 411.5t413.5 149.5q270 0 398.5 -144t128.5 -394q0 -268 -139.5 -421t-413.5 -153q-268 0 -397.5 148.5t-129.5 402.5zM250 1257l252 265h213l252 -265l-123 -106l-236 190l-235 -190zM379 537q0 -346 217 -347q215 0 215 349q0 176 -51 251.5 t-156 75.5q-225 1 -225 -329z" />
<glyph unicode="&#xf5;" horiz-adv-x="1189" d="M55 526q0 262 139.5 411.5t413.5 149.5q270 0 398.5 -144t128.5 -394q0 -268 -139.5 -421t-413.5 -153q-268 0 -397.5 148.5t-129.5 402.5zM240 1264l61 104q61 102 135 102q47 0 129 -24q145 -39 203 -51q23 -6 33 8l59 63l121 -73l-45 -82q-35 -63 -63.5 -90t-71.5 -27 q-29 0 -148 29q-197 49 -200 49q-14 0 -33 -17l-68 -63zM379 537q0 -346 217 -347q215 0 215 349q0 176 -51 251.5t-156 75.5q-225 1 -225 -329z" />
<glyph unicode="&#xf6;" horiz-adv-x="1189" d="M55 526q0 262 139.5 411.5t413.5 149.5q270 0 398.5 -144t128.5 -394q0 -268 -139.5 -421t-413.5 -153q-268 0 -397.5 148.5t-129.5 402.5zM248 1364q0 66 40 104.5t105.5 38.5t105.5 -38.5t40 -104.5t-40 -104.5t-105.5 -38.5t-105.5 40t-40 103zM379 537 q0 -346 217 -347q215 0 215 349q0 176 -51 251.5t-156 75.5q-225 1 -225 -329zM674 1364q0 66 40 104.5t105.5 38.5t105.5 -38.5t40 -104.5t-40 -104.5t-105.5 -38.5t-105.5 40t-40 103z" />
<glyph unicode="&#xf7;" horiz-adv-x="1167" d="M186 539v237h793v-237h-793zM416 319q0 68 42 109t119.5 41t118.5 -41t41 -109q0 -150 -159 -149q-162 -1 -162 149zM416 995q0 68 41 109t121 41q78 0 118.5 -40t40.5 -110q0 -147 -159 -147q-162 0 -162 147z" />
<glyph unicode="&#xf8;" horiz-adv-x="1189" d="M55 526q0 262 139.5 411.5t413.5 149.5q66 0 113 -8l61 140h217l-88 -201q223 -127 224 -469q0 -268 -139.5 -421t-413.5 -153q-61 0 -129 11l-66 -152h-219l98 221q-211 131 -211 471zM379 537q0 -115 20 -183l226 510q-6 2 -21 2q-225 1 -225 -329zM547 195 q29 -4 49 -5q215 0 215 349q0 117 -27 196z" />
<glyph unicode="&#xf9;" horiz-adv-x="1275" d="M41 899l20 168h420v-678q0 -96 22.5 -134t86.5 -38q109 0 211 94v527q0 25 -5 30.5t-28 10.5l-88 20l22 168h408v-850q0 -23 5 -30t24 -9l102 -14v-164h-381l-16 111l-10 2q-53 -41 -94.5 -65.5t-115 -48.5t-155.5 -24q-158 0 -227.5 89.5t-69.5 271.5v500q0 25 -5 31.5 t-28 11.5zM334 1448l168 160l313 -357l-117 -102z" />
<glyph unicode="&#xfa;" horiz-adv-x="1275" d="M41 899l20 168h420v-678q0 -96 22.5 -134t86.5 -38q109 0 211 94v527q0 25 -5 30.5t-28 10.5l-88 20l22 168h408v-850q0 -23 5 -30t24 -9l102 -14v-164h-381l-16 111l-10 2q-53 -41 -94.5 -65.5t-115 -48.5t-155.5 -24q-158 0 -227.5 89.5t-69.5 271.5v500q0 25 -5 31.5 t-28 11.5zM418 1251l313 357l168 -160l-367 -299z" />
<glyph unicode="&#xfb;" horiz-adv-x="1275" d="M41 899l20 168h420v-678q0 -96 22.5 -134t86.5 -38q109 0 211 94v527q0 25 -5 30.5t-28 10.5l-88 20l22 168h408v-850q0 -23 5 -30t24 -9l102 -14v-164h-381l-16 111l-10 2q-53 -41 -94.5 -65.5t-115 -48.5t-155.5 -24q-158 0 -227.5 89.5t-69.5 271.5v500q0 25 -5 31.5 t-28 11.5zM254 1257l252 265h213l252 -265l-123 -106l-236 190l-235 -190z" />
<glyph unicode="&#xfc;" horiz-adv-x="1275" d="M41 899l20 168h420v-678q0 -96 22.5 -134t86.5 -38q109 0 211 94v527q0 25 -5 30.5t-28 10.5l-88 20l22 168h408v-850q0 -23 5 -30t24 -9l102 -14v-164h-381l-16 111l-10 2q-53 -41 -94.5 -65.5t-115 -48.5t-155.5 -24q-158 0 -227.5 89.5t-69.5 271.5v500q0 25 -5 31.5 t-28 11.5zM252 1364q0 66 40 104.5t105.5 38.5t105.5 -38.5t40 -104.5t-40 -104.5t-105.5 -38.5t-105.5 40t-40 103zM678 1364q0 66 40 104.5t105.5 38.5t105.5 -38.5t40 -104.5t-40 -104.5t-105.5 -38.5t-105.5 40t-40 103z" />
<glyph unicode="&#xfd;" horiz-adv-x="1267" d="M6 901l33 166h543v-166l-129 -16l227 -541h14l217 541l-133 16l27 166h457v-166l-66 -12q-39 -6 -51 -35l-451 -1102l213 -22v-164h-682v166l160 18q33 2 51 45l88 195l-391 856q-8 27 -43 35zM426 1251l313 357l168 -160l-366 -299z" />
<glyph unicode="&#xfe;" horiz-adv-x="1239" d="M18 1380l23 166h420v-581l8 -4q162 127 317 126q389 0 390 -524q0 -111 -24 -211t-71 -187t-130 -138.5t-191 -51.5q-172 0 -301 105v-293q0 -25 6 -32t29 -9l213 -18v-162h-670v164l82 12q23 4 30 12t7 31v1513q0 35 -27 43zM465 291q100 -76 194 -76q193 0 193 332 q0 299 -188 299q-92 0 -199 -76v-479z" />
<glyph unicode="&#xff;" horiz-adv-x="1267" d="M6 901l33 166h543v-166l-129 -16l227 -541h14l217 541l-133 16l27 166h457v-166l-66 -12q-39 -6 -51 -35l-451 -1102l213 -22v-164h-682v166l160 18q33 2 51 45l88 195l-391 856q-8 27 -43 35zM293 1364q0 66 40 104.5t105.5 38.5t105.5 -38.5t40 -104.5t-40 -104.5 t-105.5 -38.5t-105.5 40t-40 103zM719 1364q0 66 40 104.5t105.5 38.5t105.5 -38.5t40 -104.5t-40 -104.5t-105.5 -38.5t-105.5 40t-40 103z" />
<glyph unicode="&#x100;" horiz-adv-x="1554" d="M6 0v160l90 22q41 10 51 39l449 1262h362l447 -1266q8 -25 49 -35l94 -22v-160h-647v160l168 18l-74 213h-508l-71 -213l162 -18v-160h-572zM455 1608v204h649v-204h-649zM551 612h383l-182 557h-13z" />
<glyph unicode="&#x101;" horiz-adv-x="1140" d="M68 279q0 152 94 227.5t289 87.5l235 16v113q0 84 -24.5 123t-112.5 39q-82 0 -116 -25.5t-34 -111.5l-288 24q0 315 440 315q240 0 338 -79.5t98 -290.5v-498q0 -25 5 -32t28 -9l98 -16v-162h-377l-20 111l-10 2q-141 -137 -344 -138q-299 1 -299 304zM227 1227v205h650 v-205h-650zM383 309q0 -113 117 -112q86 0 186 73v170l-139 -10q-90 -6 -127 -33t-37 -88z" />
<glyph unicode="&#x102;" horiz-adv-x="1554" d="M6 0v160l90 22q41 10 51 39l449 1262h362l447 -1266q8 -25 49 -35l94 -22v-160h-647v160l168 18l-74 213h-508l-71 -213l162 -18v-160h-572zM434 1870l158 57q49 -141 186 -141q133 0 189 141l153 -57q-37 -135 -118.5 -201.5t-223.5 -66.5q-276 0 -344 268zM551 612h383 l-182 557h-13z" />
<glyph unicode="&#x103;" horiz-adv-x="1140" d="M68 279q0 152 94 227.5t289 87.5l235 16v113q0 84 -24.5 123t-112.5 39q-82 0 -116 -25.5t-34 -111.5l-288 24q0 315 440 315q240 0 338 -79.5t98 -290.5v-498q0 -25 5 -32t28 -9l98 -16v-162h-377l-20 111l-10 2q-141 -137 -344 -138q-299 1 -299 304zM199 1450l155 59 q53 -154 197 -153q135 0 197 153l155 -59q-74 -279 -352 -279q-280 0 -352 279zM383 309q0 -113 117 -112q86 0 186 73v170l-139 -10q-90 -6 -127 -33t-37 -88z" />
<glyph unicode="&#x104;" horiz-adv-x="1554" d="M6 0v160l90 22q41 10 51 39l449 1262h362l447 -1266q8 -25 49 -35l94 -22v-160h-211q-156 -135 -155 -233q0 -59 59 -60q41 0 107 21l57 -152q-119 -55 -242 -55q-109 0 -164 49t-55 133q0 156 191 297h-234v160l168 18l-74 213h-508l-71 -213l162 -18v-160h-572z M551 612h383l-182 557h-13z" />
<glyph unicode="&#x105;" horiz-adv-x="1140" d="M68 279q0 152 94 227.5t289 87.5l235 16v113q0 84 -24.5 123t-112.5 39q-82 0 -116 -25.5t-34 -111.5l-288 24q0 315 440 315q240 0 338 -79.5t98 -290.5v-498q0 -25 5 -32t28 -9l98 -16v-162h-2q-86 -35 -147.5 -102.5t-61.5 -130.5q0 -59 60 -60q41 0 106 21l57 -152 q-119 -55 -241 -55q-109 0 -164 49t-55 133q0 88 61.5 167t151.5 130h-142l-20 111l-10 2q-141 -137 -344 -138q-299 1 -299 304zM383 309q0 -113 117 -112q86 0 186 73v170l-139 -10q-90 -6 -127 -33t-37 -88z" />
<glyph unicode="&#x106;" horiz-adv-x="1386" d="M63 748q0 342 197 551.5t565 209.5q287 0 465 -116v-402l-225 19l-33 200q-6 29 -33 37q-78 25 -182 25q-199 0 -312.5 -134t-113.5 -390q0 -266 108.5 -402.5t303.5 -136.5q119 0 205 27q18 4 25 12t11 31l31 190h219v-381q-184 -113 -512 -113q-719 1 -719 773z M565 1706l422 250l105 -203l-455 -182z" />
<glyph unicode="&#x107;" horiz-adv-x="1044" d="M55 518q0 279 152.5 424t408.5 145q113 0 212.5 -25.5t152.5 -60.5v-321l-219 10l-25 135q-4 27 -24 33q-43 14 -105 14q-100 0 -163.5 -77.5t-63.5 -245.5q0 -342 264 -342q119 0 256 59l80 -190q-166 -100 -389 -101q-266 0 -401.5 148.5t-135.5 394.5zM369 1251 l313 357l168 -160l-367 -299z" />
<glyph unicode="&#x108;" horiz-adv-x="1386" d="M63 748q0 342 197 551.5t565 209.5q287 0 465 -116v-402l-225 19l-33 200q-6 29 -33 37q-78 25 -182 25q-199 0 -312.5 -134t-113.5 -390q0 -266 108.5 -402.5t303.5 -136.5q119 0 205 27q18 4 25 12t11 31l31 190h219v-381q-184 -113 -512 -113q-719 1 -719 773z M436 1686l248 229h213l248 -229l-113 -115l-241 166l-242 -166z" />
<glyph unicode="&#x109;" horiz-adv-x="1044" d="M55 518q0 279 152.5 424t408.5 145q113 0 212.5 -25.5t152.5 -60.5v-321l-219 10l-25 135q-4 27 -24 33q-43 14 -105 14q-100 0 -163.5 -77.5t-63.5 -245.5q0 -342 264 -342q119 0 256 59l80 -190q-166 -100 -389 -101q-266 0 -401.5 148.5t-135.5 394.5zM238 1257 l251 265h213l252 -265l-123 -106l-235 190l-236 -190z" />
<glyph unicode="&#x10a;" horiz-adv-x="1386" d="M63 748q0 342 197 551.5t565 209.5q287 0 465 -116v-402l-225 19l-33 200q-6 29 -33 37q-78 25 -182 25q-199 0 -312.5 -134t-113.5 -390q0 -266 108.5 -402.5t303.5 -136.5q119 0 205 27q18 4 25 12t11 31l31 190h219v-381q-184 -113 -512 -113q-719 1 -719 773z M606 1784q0 88 48 134t137 46q90 0 138 -46t48 -134t-49 -136.5t-137.5 -48.5t-136.5 48.5t-48 136.5z" />
<glyph unicode="&#x10b;" horiz-adv-x="1044" d="M55 518q0 279 152.5 424t408.5 145q113 0 212.5 -25.5t152.5 -60.5v-321l-219 10l-25 135q-4 27 -24 33q-43 14 -105 14q-100 0 -163.5 -77.5t-63.5 -245.5q0 -342 264 -342q119 0 256 59l80 -190q-166 -100 -389 -101q-266 0 -401.5 148.5t-135.5 394.5zM412 1421 q0 88 48 134.5t136 46.5q90 0 138 -46.5t48 -134.5q0 -90 -49 -138t-137 -48t-136 49t-48 137z" />
<glyph unicode="&#x10c;" horiz-adv-x="1386" d="M63 748q0 342 197 551.5t565 209.5q287 0 465 -116v-402l-225 19l-33 200q-6 29 -33 37q-78 25 -182 25q-199 0 -312.5 -134t-113.5 -390q0 -266 108.5 -402.5t303.5 -136.5q119 0 205 27q18 4 25 12t11 31l31 190h219v-381q-184 -113 -512 -113q-719 1 -719 773z M436 1823l111 116l244 -165l241 165l113 -116l-248 -228h-213z" />
<glyph unicode="&#x10d;" horiz-adv-x="1044" d="M55 518q0 279 152.5 424t408.5 145q113 0 212.5 -25.5t152.5 -60.5v-321l-219 10l-25 135q-4 27 -24 33q-43 14 -105 14q-100 0 -163.5 -77.5t-63.5 -245.5q0 -342 264 -342q119 0 256 59l80 -190q-166 -100 -389 -101q-266 0 -401.5 148.5t-135.5 394.5zM240 1454 l122 109l234 -191l238 191l120 -107l-252 -264h-213z" />
<glyph unicode="&#x10e;" horiz-adv-x="1540" d="M78 0v164l129 14q20 2 26.5 9.5t6.5 31.5v1047q0 23 -6.5 31t-26.5 10l-129 14v162h663q375 0 555.5 -187.5t180.5 -531.5q0 -354 -192.5 -559t-577.5 -205h-629zM340 1823l111 116l243 -165l242 165l113 -116l-248 -228h-213zM557 221h117q481 0 481 524 q0 279 -110.5 398t-358.5 119h-129v-1041z" />
<glyph unicode="&#x10f;" horiz-adv-x="1472" d="M72 520q0 289 122.5 428t311.5 139q156 0 289 -98v311q0 33 -27 41l-113 39l23 166h412v-1331q0 -23 5 -30t27 -9l99 -14v-162h-381l-21 115l-14 2q-145 -141 -336 -142q-397 0 -397 545zM395 526q0 -309 187 -309q98 0 200 88v483q-90 61 -176 62q-109 0 -160 -88.5 t-51 -235.5zM1180 1141q41 160 41 241q0 78 -27 127l215 82q39 -57 39 -135q0 -43 -12 -92q-37 -129 -109 -266z" />
<glyph unicode="&#x110;" horiz-adv-x="1540" d="M78 0v164l129 14q20 2 26.5 9.5t6.5 31.5v416h-131v219h131v412q0 23 -6.5 31t-26.5 10l-129 14v162h663q375 0 555.5 -187.5t180.5 -531.5q0 -354 -192.5 -559t-577.5 -205h-629zM557 221h117q481 0 481 524q0 279 -110.5 398t-358.5 119h-129v-408h291v-219h-291v-414z " />
<glyph unicode="&#x111;" horiz-adv-x="1249" d="M70 500q0 276 121.5 401t312.5 125q156 0 289 -98v170h-338v176h338v26q0 33 -27 41l-113 39l23 166h411v-272h107v-176h-107v-883q0 -23 5.5 -30t27.5 -9l99 -14v-162h-381l-21 115l-14 2q-145 -141 -336 -142q-397 1 -397 525zM393 506q0 -289 187 -289q98 0 200 88 v422q-90 61 -176 61q-211 1 -211 -282z" />
<glyph unicode="&#x112;" horiz-adv-x="1284" d="M78 0v160l129 14q20 2 26.5 10.5t6.5 30.5v1051q0 25 -6.5 32t-26.5 9l-129 14v162h1089v-414l-225 10l-29 156q-6 27 -34 27h-322v-404h479v-227h-479v-412h367q29 0 32 23l33 180h223v-422h-1134zM324 1608v204h649v-204h-649z" />
<glyph unicode="&#x113;" horiz-adv-x="1075" d="M55 541q0 266 142.5 406t365.5 140q213 0 332 -119.5t119 -375.5q0 -55 -4 -137h-627q16 -242 242 -242q117 0 305 70l76 -203q-215 -104 -420 -105q-281 0 -406 153t-125 413zM229 1227v205h650v-205h-650zM385 649h326q-2 217 -154 217q-156 0 -172 -217z" />
<glyph unicode="&#x114;" horiz-adv-x="1284" d="M78 0v160l129 14q20 2 26.5 10.5t6.5 30.5v1051q0 25 -6.5 32t-26.5 9l-129 14v162h1089v-414l-225 10l-29 156q-6 27 -34 27h-322v-404h479v-227h-479v-412h367q29 0 32 23l33 180h223v-422h-1134zM303 1870l158 57q49 -141 186 -141q133 0 189 141l153 -57 q-37 -135 -119 -201.5t-223 -66.5q-276 0 -344 268z" />
<glyph unicode="&#x115;" horiz-adv-x="1075" d="M55 541q0 266 142.5 406t365.5 140q213 0 332 -119.5t119 -375.5q0 -55 -4 -137h-627q16 -242 242 -242q117 0 305 70l76 -203q-215 -104 -420 -105q-281 0 -406 153t-125 413zM201 1450l155 59q53 -154 197 -153q135 0 197 153l155 -59q-74 -279 -352 -279 q-280 0 -352 279zM385 649h326q-2 217 -154 217q-156 0 -172 -217z" />
<glyph unicode="&#x116;" horiz-adv-x="1284" d="M78 0v160l129 14q20 2 26.5 10.5t6.5 30.5v1051q0 25 -6.5 32t-26.5 9l-129 14v162h1089v-414l-225 10l-29 156q-6 27 -34 27h-322v-404h479v-227h-479v-412h367q29 0 32 23l33 180h223v-422h-1134zM463 1784q0 88 48 134t136 46q90 0 138.5 -46t48.5 -134t-49.5 -136.5 t-137.5 -48.5t-136 48.5t-48 136.5z" />
<glyph unicode="&#x117;" horiz-adv-x="1075" d="M55 541q0 266 142.5 406t365.5 140q213 0 332 -119.5t119 -375.5q0 -55 -4 -137h-627q16 -242 242 -242q117 0 305 70l76 -203q-215 -104 -420 -105q-281 0 -406 153t-125 413zM369 1421q0 88 48 134.5t136 46.5q90 0 138 -46.5t48 -134.5q0 -90 -48 -138t-138 -48 q-88 0 -136 49t-48 137zM385 649h326q-2 217 -154 217q-156 0 -172 -217z" />
<glyph unicode="&#x118;" horiz-adv-x="1284" d="M78 0v160l129 14q20 2 26.5 10.5t6.5 30.5v1051q0 25 -6.5 32t-26.5 9l-129 14v162h1089v-414l-225 10l-29 156q-6 27 -34 27h-322v-404h479v-227h-479v-412h367q29 0 32 23l33 180h223v-422q-86 -35 -147 -102.5t-61 -130.5q0 -59 59 -60q41 0 106 21l58 -152 q-119 -55 -242 -55q-109 0 -164 49t-55 133q0 88 61.5 167t151.5 130h-901z" />
<glyph unicode="&#x119;" horiz-adv-x="1075" d="M55 541q0 266 142.5 406t365.5 140q451 0 451 -501q0 -37 -4 -119h-627q12 -254 242 -254q117 0 305 70l76 -203q-14 -6 -69.5 -31.5t-82.5 -42.5q-74 -43 -124 -109.5t-50 -129.5q0 -59 59 -60q41 0 107 21l57 -152q-119 -55 -241 -55q-109 0 -164.5 49t-55.5 133 q0 141 160 272h-16q-281 0 -406 153t-125 413zM385 645h326q-2 221 -154 221q-156 0 -172 -221z" />
<glyph unicode="&#x11a;" horiz-adv-x="1284" d="M78 0v160l129 14q20 2 26.5 10.5t6.5 30.5v1051q0 25 -6.5 32t-26.5 9l-129 14v162h1089v-414l-225 10l-29 156q-6 27 -34 27h-322v-404h479v-227h-479v-412h367q29 0 32 23l33 180h223v-422h-1134zM293 1823l110 116l244 -165l242 165l112 -116l-247 -228h-213z" />
<glyph unicode="&#x11b;" horiz-adv-x="1075" d="M55 541q0 266 142.5 406t365.5 140q213 0 332 -119.5t119 -375.5q0 -55 -4 -137h-627q16 -242 242 -242q117 0 305 70l76 -203q-215 -104 -420 -105q-281 0 -406 153t-125 413zM197 1454l122 109l234 -191l238 191l120 -107l-252 -264h-213zM385 649h326q-2 217 -154 217 q-156 0 -172 -217z" />
<glyph unicode="&#x11c;" horiz-adv-x="1478" d="M61 745q0 342 197 553t571 211q119 0 247 -30.5t216 -87.5v-387l-227 16l-31 184q-8 35 -33 41q-94 27 -188 27q-197 0 -309.5 -140.5t-112.5 -381.5q0 -258 109.5 -398.5t326.5 -140.5q88 0 170 14q33 6 33 37v268h-227l28 185h629v-164l-84 -8q-33 -2 -33 -29v-440 q-207 -98 -530 -99q-205 0 -353.5 57.5t-233.5 164t-125 241.5t-40 307zM428 1686l248 229h213l248 -229l-113 -115l-242 166l-241 -166z" />
<glyph unicode="&#x11d;" horiz-adv-x="1165" d="M49 -209q0 63 25.5 107.5t87.5 101.5q-90 39 -90 135q0 61 59 125q47 49 127 123q-80 39 -128 119t-48 188q0 182 120 289.5t349 107.5q111 0 188 -20h400v-174l-189 -14q76 -96 76 -207q0 -168 -120 -264.5t-316 -96.5q-96 0 -162 19l-68 -109l201 -12q299 -18 391 -51 q150 -49 168 -199q4 -25 4 -55q0 -176 -147.5 -272.5t-415.5 -96.5q-512 0 -512 256zM211 1257l252 265h213l252 -265l-123 -106l-236 190l-235 -190zM291 -164q0 -106 248 -106q281 0 280 118q0 25 -11 39.5t-42 21.5t-52.5 10t-70.5 5l-299 21q-53 -66 -53 -109zM373 696 q0 -170 190 -170q86 0 139.5 47.5t53.5 126.5q0 90 -49.5 137.5t-137.5 47.5q-90 0 -143 -46.5t-53 -142.5z" />
<glyph unicode="&#x11e;" horiz-adv-x="1478" d="M61 745q0 342 197 553t571 211q119 0 247 -30.5t216 -87.5v-387l-227 16l-31 184q-8 35 -33 41q-94 27 -188 27q-197 0 -309.5 -140.5t-112.5 -381.5q0 -258 109.5 -398.5t326.5 -140.5q88 0 170 14q33 6 33 37v268h-227l28 185h629v-164l-84 -8q-33 -2 -33 -29v-440 q-207 -98 -530 -99q-205 0 -353.5 57.5t-233.5 164t-125 241.5t-40 307zM438 1870l158 57q49 -141 186 -141q133 0 189 141l153 -57q-37 -135 -118.5 -201.5t-223.5 -66.5q-276 0 -344 268z" />
<glyph unicode="&#x11f;" horiz-adv-x="1165" d="M49 -209q0 63 25.5 107.5t87.5 101.5q-90 39 -90 135q0 61 59 125q47 49 127 123q-80 39 -128 119t-48 188q0 182 120 289.5t349 107.5q111 0 188 -20h400v-174l-189 -14q76 -96 76 -207q0 -168 -120 -264.5t-316 -96.5q-96 0 -162 19l-68 -109l201 -12q299 -18 391 -51 q150 -49 168 -199q4 -25 4 -55q0 -176 -147.5 -272.5t-415.5 -96.5q-512 0 -512 256zM217 1450l156 59q53 -154 196 -153q135 0 197 153l156 -59q-74 -279 -353 -279q-280 0 -352 279zM291 -164q0 -106 248 -106q281 0 280 118q0 25 -11 39.5t-42 21.5t-52.5 10t-70.5 5 l-299 21q-53 -66 -53 -109zM373 696q0 -170 190 -170q86 0 139.5 47.5t53.5 126.5q0 90 -49.5 137.5t-137.5 47.5q-90 0 -143 -46.5t-53 -142.5z" />
<glyph unicode="&#x120;" horiz-adv-x="1478" d="M61 745q0 342 197 553t571 211q119 0 247 -30.5t216 -87.5v-387l-227 16l-31 184q-8 35 -33 41q-94 27 -188 27q-197 0 -309.5 -140.5t-112.5 -381.5q0 -258 109.5 -398.5t326.5 -140.5q88 0 170 14q33 6 33 37v268h-227l28 185h629v-164l-84 -8q-33 -2 -33 -29v-440 q-207 -98 -530 -99q-205 0 -353.5 57.5t-233.5 164t-125 241.5t-40 307zM598 1784q0 88 48 134t136 46q90 0 138.5 -46t48.5 -134t-49.5 -136.5t-137.5 -48.5t-136 48.5t-48 136.5z" />
<glyph unicode="&#x121;" horiz-adv-x="1165" d="M49 -209q0 63 25.5 107.5t87.5 101.5q-90 39 -90 135q0 61 59 125q47 49 127 123q-80 39 -128 119t-48 188q0 182 120 289.5t349 107.5q111 0 188 -20h400v-174l-189 -14q76 -96 76 -207q0 -168 -120 -264.5t-316 -96.5q-96 0 -162 19l-68 -109l201 -12q299 -18 391 -51 q150 -49 168 -199q4 -25 4 -55q0 -176 -147.5 -272.5t-415.5 -96.5q-512 0 -512 256zM291 -164q0 -106 248 -106q281 0 280 118q0 25 -11 39.5t-42 21.5t-52.5 10t-70.5 5l-299 21q-53 -66 -53 -109zM373 696q0 -170 190 -170q86 0 139.5 47.5t53.5 126.5q0 90 -49.5 137.5 t-137.5 47.5q-90 0 -143 -46.5t-53 -142.5zM385 1421q0 88 48 134.5t136 46.5q90 0 138.5 -46.5t48.5 -134.5q0 -90 -48.5 -138t-138.5 -48q-88 0 -136 49t-48 137z" />
<glyph unicode="&#x122;" horiz-adv-x="1478" d="M61 745q0 342 197 553t571 211q119 0 247 -30.5t216 -87.5v-387l-227 16l-31 184q-8 35 -33 41q-94 27 -188 27q-197 0 -309.5 -140.5t-112.5 -381.5q0 -258 109.5 -398.5t326.5 -140.5q88 0 170 14q33 6 33 37v268h-227l28 185h629v-164l-84 -8q-33 -2 -33 -29v-440 q-207 -98 -530 -99q-205 0 -353.5 57.5t-233.5 164t-125 241.5t-40 307zM631 -313l43 200q88 -2 139 -10t91 -43t40 -98q0 -57 -39 -139l-94 -197l-133 39l43 196q6 18 -10 25z" />
<glyph unicode="&#x123;" horiz-adv-x="1165" d="M49 -209q0 63 25.5 107.5t87.5 101.5q-90 39 -90 135q0 61 59 125q47 49 127 123q-80 39 -128 119t-48 188q0 182 120 289.5t349 107.5q111 0 188 -20h400v-174l-189 -14q76 -96 76 -207q0 -168 -120 -264.5t-316 -96.5q-96 0 -162 19l-68 -109l201 -12q299 -18 391 -51 q150 -49 168 -199q4 -25 4 -55q0 -176 -147.5 -272.5t-415.5 -96.5q-512 0 -512 256zM291 -164q0 -106 248 -106q281 0 280 118q0 25 -11 39.5t-42 21.5t-52.5 10t-70.5 5l-299 21q-53 -66 -53 -109zM373 696q0 -170 190 -170q86 0 139.5 47.5t53.5 126.5q0 90 -49.5 137.5 t-137.5 47.5q-90 0 -143 -46.5t-53 -142.5zM416 1300q0 57 39 140l94 196l133 -39l-43 -196q-6 -18 10 -25l80 -26l-43 -201q-88 2 -139 10t-91 43t-40 98z" />
<glyph unicode="&#x124;" horiz-adv-x="1675" d="M78 0v160l129 14q20 2 26.5 10.5t6.5 30.5v1049q0 25 -6.5 32t-26.5 9l-129 14v164h649v-164l-137 -16q-23 -2 -28 -9.5t-5 -29.5v-387h561v387q0 25 -6 32t-27 9l-129 14v164h648v-164l-138 -16q-23 -2 -27.5 -9.5t-4.5 -29.5v-1047q0 -25 5 -32t27 -9l138 -16v-160 h-648v160l129 14q20 2 26.5 10.5t6.5 30.5v432h-561v-430q0 -25 5 -32t28 -9l137 -16v-160h-649zM492 1686l247 229h213l248 -229l-113 -115l-241 166l-242 -166z" />
<glyph unicode="&#x125;" horiz-adv-x="1277" d="M-43 1731l221 229h213l221 -229l-112 -115l-215 166l-215 -166zM39 1380l22 166h422v-579l11 -2q150 123 327 122q158 0 227.5 -82.5t69.5 -248.5v-539q0 -25 5 -32t28 -9l102 -14v-162h-444v668q0 174 -108.5 174t-213.5 -76v-549q0 -25 5.5 -32t27.5 -9l98 -14v-162 h-565v162l92 14q20 2 26.5 10.5t6.5 30.5v1081q0 35 -26 43z" />
<glyph unicode="&#x126;" horiz-adv-x="1705" d="M94 0v160l129 14q20 2 26.5 10.5t6.5 30.5v786h-135v179h135v84q0 25 -6 32t-27 9l-129 14v164h649v-164l-137 -16q-23 -2 -28 -9.5t-5 -29.5v-84h562v84q0 25 -6.5 32t-26.5 9l-129 14v164h647v-164l-137 -16q-23 -2 -28 -9.5t-5 -29.5v-84h137v-179h-137v-784 q0 -25 5 -32t28 -9l137 -16v-160h-647v160l129 14q20 2 26.5 10.5t6.5 30.5v432h-562v-430q0 -25 5.5 -32t27.5 -9l137 -16v-160h-649zM573 877h562v124h-562v-124z" />
<glyph unicode="&#x127;" horiz-adv-x="1277" d="M39 1380l22 166h422v-272h318v-176h-318v-193l11 -2q150 123 327 123q158 0 227.5 -83t69.5 -249v-477q0 -25 5 -32t28 -9l102 -14v-162h-444v606q0 174 -108.5 174t-213.5 -75v-488q0 -25 5.5 -32t27.5 -9l98 -14v-162h-565v162l92 14q20 2 26.5 10.5t6.5 30.5v881h-117 v176h117v24q0 35 -26 43z" />
<glyph unicode="&#x128;" horiz-adv-x="827" d="M49 1669l62 105q61 102 135 102q45 0 129 -25q145 -39 203 -51q23 -6 32 8l60 64l121 -74l-46 -82q-35 -63 -63.5 -90t-71.5 -27q-29 0 -147 29q-197 49 -201 49q-14 0 -33 -16l-67 -64zM74 0v160l149 14q20 2 26.5 9t6.5 32v1049q0 25 -6 32t-27 9l-149 14v164h688v-164 l-158 -16q-23 -2 -28 -9.5t-5 -29.5v-1047q0 -25 5.5 -32t27.5 -9l158 -16v-160h-688z" />
<glyph unicode="&#x129;" horiz-adv-x="647" d="M-68 1249l60 105q57 102 129 102q45 0 125 -24l194 -52q20 -4 31 9l57 63l117 -74l-43 -82q-35 -63 -62.5 -89.5t-68.5 -26.5q-27 0 -141 28q-186 49 -193 49q-14 0 -31 -16l-65 -63zM41 0v162l104 14q20 2 26.5 10.5t6.5 30.5v602q0 35 -26 43l-111 39l22 166h424v-850 q0 -25 5.5 -32t27.5 -9l105 -14v-162h-584z" />
<glyph unicode="&#x12a;" horiz-adv-x="827" d="M74 0v160l149 14q20 2 26.5 9t6.5 32v1049q0 25 -6 32t-27 9l-149 14v164h688v-164l-158 -16q-23 -2 -28 -9.5t-5 -29.5v-1047q0 -25 5.5 -32t27.5 -9l158 -16v-160h-688zM94 1608v204h649v-204h-649z" />
<glyph unicode="&#x12b;" horiz-adv-x="647" d="M16 1221v204h535v-204h-535zM41 0v162l104 14q20 2 26.5 10.5t6.5 30.5v602q0 35 -26 43l-111 39l22 166h424v-850q0 -25 5.5 -32t27.5 -9l105 -14v-162h-584z" />
<glyph unicode="&#x12c;" horiz-adv-x="827" d="M74 0v160l149 14q20 2 26.5 9t6.5 32v1049q0 25 -6 32t-27 9l-149 14v164h688v-164l-158 -16q-23 -2 -28 -9.5t-5 -29.5v-1047q0 -25 5.5 -32t27.5 -9l158 -16v-160h-688zM74 1870l157 57q49 -141 187 -141q133 0 188 141l154 -57q-37 -135 -119 -201.5t-223 -66.5 q-276 0 -344 268z" />
<glyph unicode="&#x12d;" horiz-adv-x="647" d="M-41 1444l156 59q47 -154 172 -153q63 0 103 35.5t69 117.5l155 -59q-35 -137 -112.5 -208t-214.5 -71q-260 0 -328 279zM41 0v162l104 14q20 2 26.5 10.5t6.5 30.5v602q0 35 -26 43l-111 39l22 166h424v-850q0 -25 5.5 -32t27.5 -9l105 -14v-162h-584z" />
<glyph unicode="&#x12e;" horiz-adv-x="827" d="M74 0v160l149 14q20 2 26.5 9t6.5 32v1049q0 25 -6 32t-27 9l-149 14v164h688v-164l-158 -16q-23 -2 -28 -9.5t-5 -29.5v-1047q0 -25 5.5 -32t27.5 -9l158 -16v-160h-221q-156 -135 -156 -233q0 -59 59 -60q41 0 107 21l57 -152q-119 -55 -241 -55q-109 0 -164.5 49 t-55.5 133q0 156 191 297h-264z" />
<glyph unicode="&#x12f;" horiz-adv-x="647" d="M41 0v162l104 14q20 2 26.5 10.5t6.5 30.5v602q0 35 -26 43l-111 39l22 166h424v-850q0 -25 5.5 -32t27.5 -9l105 -14v-162h-189q-156 -135 -155 -233q0 -59 59 -60q41 0 106 21l58 -152q-119 -55 -242 -55q-109 0 -164 49t-55 133q0 156 190 297h-192zM121 1415 q0 88 48 134t136 46q90 0 138.5 -46t48.5 -134t-49.5 -136t-137.5 -48t-136 48t-48 136z" />
<glyph unicode="&#x130;" horiz-adv-x="827" d="M74 0v160l149 14q20 2 26.5 9t6.5 32v1049q0 25 -6 32t-27 9l-149 14v164h688v-164l-158 -16q-23 -2 -28 -9.5t-5 -29.5v-1047q0 -25 5.5 -32t27.5 -9l158 -16v-160h-688zM233 1784q0 88 48.5 134t136.5 46q90 0 138 -46t48 -134t-49 -136.5t-137 -48.5t-136.5 48.5 t-48.5 136.5z" />
<glyph unicode="&#x131;" horiz-adv-x="647" d="M41 0v162l104 14q20 2 26.5 10.5t6.5 30.5v602q0 35 -26 43l-111 39l22 166h424v-850q0 -25 5.5 -32t27.5 -9l105 -14v-162h-584z" />
<glyph unicode="&#x132;" horiz-adv-x="1855" d="M74 0v160l149 14q20 2 26.5 9t6.5 32v1049q0 25 -6 32t-27 9l-149 14v164h688v-164l-158 -16q-23 -2 -28 -9.5t-5 -29.5v-1047q0 -25 5.5 -32t27.5 -9l158 -16v-160h-688zM885 55v365l229 -17l21 -147q2 -20 22 -27q37 -12 82 -12q55 0 77.5 26.5t22.5 92.5v930 q0 23 -6 30t-26 9l-185 14v164h705v-164l-137 -16q-23 -2 -28 -8.5t-5 -28.5v-932q0 -182 -92 -270.5t-295 -88.5q-117 0 -227.5 24.5t-157.5 55.5z" />
<glyph unicode="&#x133;" horiz-adv-x="1230" d="M41 0v162l104 14q20 2 26.5 10.5t6.5 30.5v602q0 35 -26 43l-111 39l22 166h424v-850q0 -25 5.5 -32t27.5 -9l105 -14v-162h-584zM121 1415q0 88 48 134t136 46q90 0 138.5 -46t48.5 -134t-49.5 -136t-137.5 -48t-136 48t-48 136zM410 -352l88 170q86 -53 178 -54 q66 0 94.5 38t28.5 141v876q0 35 -27 43l-117 39l25 166h428v-1176q0 -348 -356 -348q-113 0 -206 34t-136 71zM741 1415q0 86 49.5 133t137.5 47q90 0 138 -46t48 -134t-49 -136t-137 -48t-137.5 48t-49.5 136z" />
<glyph unicode="&#x134;" horiz-adv-x="1056" d="M72 55v365l229 -17l21 -147q2 -20 22 -27q37 -12 82 -12q55 0 77.5 26.5t22.5 92.5v930q0 23 -6 30t-26 9l-185 14v164h705v-164l-137 -16q-23 -2 -28 -8.5t-5 -28.5v-932q0 -182 -92.5 -270.5t-294.5 -88.5q-117 0 -227.5 24.5t-157.5 55.5zM328 1686l247 229h213 l248 -229l-112 -115l-242 166l-242 -166z" />
<glyph unicode="&#x135;" horiz-adv-x="622" d="M-215 -352l88 170q86 -53 178 -54q66 0 94.5 38t28.5 141v876q0 35 -27 43l-116 39l24 166h428v-1176q0 -348 -356 -348q-113 0 -206 34t-136 71zM-88 1266l252 264h213l252 -264l-123 -107l-236 191l-235 -191z" />
<glyph unicode="&#x136;" horiz-adv-x="1540" d="M78 0v162l129 14q20 2 26.5 9.5t6.5 31.5v1049q0 23 -6.5 31t-26.5 10l-129 14v162h649v-162l-137 -16q-23 -2 -28 -9.5t-5 -29.5v-512l483 549l-127 16v164h537v-164l-86 -14q-41 -6 -64 -35l-376 -426l411 -629q18 -29 60 -33l127 -20v-162h-453l-383 592l-129 -154 v-219q0 -25 5 -32t28 -9l158 -16v-162h-670zM618 -313l44 200q88 -2 139 -10t91 -43t40 -98q0 -57 -39 -139l-94 -197l-133 39l43 196q6 18 -11 25z" />
<glyph unicode="&#x137;" horiz-adv-x="1269" d="M39 1380l22 166h426v-874l375 395h283v-162l-107 -20q-27 -4 -51 -31l-145 -154l262 -489q16 -31 61 -37l90 -14v-160h-397l-260 522l-111 -121v-184q0 -25 5.5 -32t27.5 -9l123 -14v-162h-600v162l102 14q20 2 26.5 10.5t6.5 30.5v1081q0 35 -26 43zM477 -313l43 200 q88 -2 139.5 -10t91.5 -43t40 -98q0 -57 -39 -139l-95 -197l-133 39l43 196q6 18 -10 25z" />
<glyph unicode="&#x138;" horiz-adv-x="1269" d="M39 901l22 166h426v-395l375 395h283v-162l-107 -20q-27 -4 -51 -31l-145 -154l262 -489q16 -31 61 -37l90 -14v-160h-397l-260 522l-111 -121v-184q0 -25 5.5 -32t27.5 -9l123 -14v-162h-600v162l102 14q20 2 26.5 10.5t6.5 30.5v602q0 35 -26 43z" />
<glyph unicode="&#x139;" horiz-adv-x="1277" d="M78 0v162l129 14q20 2 26.5 10.5t6.5 30.5v1049q0 25 -6.5 32t-26.5 9l-129 14v162h682v-162l-170 -16q-23 -2 -28 -9.5t-5 -29.5v-1047h365q29 0 32 23l33 204h225v-446h-1134zM172 1706l422 250l104 -203l-454 -182z" />
<glyph unicode="&#x13a;" horiz-adv-x="647" d="M14 1747l422 250l105 -203l-455 -182zM39 1380l22 166h426v-1329q0 -25 5.5 -32t27.5 -9l101 -14v-162h-578v162l102 14q20 2 26.5 10.5t6.5 30.5v1081q0 35 -26 43z" />
<glyph unicode="&#x13b;" horiz-adv-x="1277" d="M78 0v162l129 14q20 2 26.5 10.5t6.5 30.5v1049q0 25 -6.5 32t-26.5 9l-129 14v162h682v-162l-170 -16q-23 -2 -28 -9.5t-5 -29.5v-1047h365q29 0 32 23l33 204h225v-446h-1134zM514 -313l43 200q88 -2 139.5 -10t91 -43t39.5 -98q0 -57 -39 -139l-94 -197l-133 39 l43 196q6 18 -10 25z" />
<glyph unicode="&#x13c;" horiz-adv-x="647" d="M39 1380l22 166h426v-1329q0 -25 5.5 -32t27.5 -9l101 -14v-162h-578v162l102 14q20 2 26.5 10.5t6.5 30.5v1081q0 35 -26 43zM168 -313l43 200q88 -2 139 -10t91 -43t40 -98q0 -57 -39 -139l-94 -197l-133 39l43 196q6 18 -10 25z" />
<glyph unicode="&#x13d;" horiz-adv-x="1277" d="M78 0v162l129 14q20 2 26.5 10.5t6.5 30.5v1049q0 25 -6.5 32t-26.5 9l-129 14v162h682v-162l-170 -16q-23 -2 -28 -9.5t-5 -29.5v-1047h365q29 0 32 23l33 204h225v-446h-1134zM864 1092q41 160 41 241q0 78 -26 127l215 82q39 -57 39 -135q0 -43 -13 -92 q-37 -129 -108 -266z" />
<glyph unicode="&#x13e;" horiz-adv-x="856" d="M39 1380l22 166h426v-1329q0 -25 5.5 -32t27.5 -9l101 -14v-162h-578v162l102 14q20 2 26.5 10.5t6.5 30.5v1081q0 35 -26 43zM567 1145q41 160 41 241q0 78 -26 127l215 82q39 -57 39 -135q0 -43 -13 -92q-37 -129 -108 -266z" />
<glyph unicode="&#x13f;" horiz-adv-x="1277" d="M78 0v162l129 14q20 2 26.5 10.5t6.5 30.5v1049q0 25 -6.5 32t-26.5 9l-129 14v162h682v-162l-170 -16q-23 -2 -28 -9.5t-5 -29.5v-1047h365q29 0 32 23l33 204h225v-446h-1134zM848 827q0 82 46 127t130 45t131 -45t47 -127q0 -84 -47 -130t-131 -46t-130 46t-46 130z " />
<glyph unicode="&#x140;" horiz-adv-x="884" d="M39 1380l22 166h426v-1329q0 -25 5.5 -32t27.5 -9l101 -14v-162h-578v162l102 14q20 2 26.5 10.5t6.5 30.5v1081q0 35 -26 43zM592 813q0 82 46 127t130 45t131 -45t47 -127q0 -84 -47 -130t-131 -46t-130 46t-46 130z" />
<glyph unicode="&#x141;" horiz-adv-x="1277" d="M78 0v162l129 14q20 2 26.5 10.5t6.5 30.5v330l-148 -60v215l148 60v504q0 25 -6.5 32t-26.5 9l-129 14v162h682v-162l-170 -16q-23 -2 -28 -9.5t-5 -29.5v-375l399 164v-219l-399 -162v-455h365q29 0 32 23l33 204h225v-446h-1134z" />
<glyph unicode="&#x142;" horiz-adv-x="681" d="M25 582v221l153 65v430q0 35 -26 43l-113 39l22 166h426v-542l150 65v-221l-150 -66v-565q0 -25 5.5 -32t27.5 -9l101 -14v-162h-578v162l102 14q20 2 26.5 10.5t6.5 30.5v430z" />
<glyph unicode="&#x143;" horiz-adv-x="1693" d="M78 0v160l129 14q20 2 26.5 10.5t6.5 30.5v1053q0 25 -6.5 32t-26.5 9l-129 14v160h508l643 -1071v852q0 25 -6 32t-27 9l-129 14v164h569v-164l-137 -16q-23 -2 -28 -9.5t-5 -29.5v-1264h-336l-653 1069v-852q0 -25 5 -32t28 -9l137 -16v-160h-569zM604 1706l422 250 l104 -203l-454 -182z" />
<glyph unicode="&#x144;" horiz-adv-x="1277" d="M41 901l25 166h358l16 -106l9 -5q176 131 360 131q164 0 236.5 -87t72.5 -261v-522q0 -25 5 -32t28 -9l102 -14v-162h-444v662q0 59 -5 91.5t-29.5 60.5t-74.5 28q-53 0 -114.5 -23.5t-98.5 -52.5v-549q0 -25 5.5 -32t27.5 -9l98 -14v-162h-565v164l92 12q20 2 26.5 10.5 t6.5 30.5v602q0 35 -26 43zM389 1251l313 357l168 -160l-366 -299z" />
<glyph unicode="&#x145;" horiz-adv-x="1693" d="M78 0v160l129 14q20 2 26.5 10.5t6.5 30.5v1053q0 25 -6.5 32t-26.5 9l-129 14v160h508l643 -1071v852q0 25 -6 32t-27 9l-129 14v164h569v-164l-137 -16q-23 -2 -28 -9.5t-5 -29.5v-1264h-336l-653 1069v-852q0 -25 5 -32t28 -9l137 -16v-160h-569zM676 -313l43 200 q88 -2 139 -10t91 -43t40 -98q0 -57 -39 -139l-94 -197l-133 39l43 196q6 18 -10 25z" />
<glyph unicode="&#x146;" horiz-adv-x="1277" d="M41 901l25 166h358l16 -106l9 -5q176 131 360 131q164 0 236.5 -87t72.5 -261v-522q0 -25 5 -32t28 -9l102 -14v-162h-444v662q0 59 -5 91.5t-29.5 60.5t-74.5 28q-53 0 -114.5 -23.5t-98.5 -52.5v-549q0 -25 5.5 -32t27.5 -9l98 -14v-162h-565v164l92 12q20 2 26.5 10.5 t6.5 30.5v602q0 35 -26 43zM481 -313l43 200q88 -2 139.5 -10t91.5 -43t40 -98q0 -57 -39 -139l-94 -197l-134 39l43 196q6 18 -10 25z" />
<glyph unicode="&#x147;" horiz-adv-x="1693" d="M78 0v160l129 14q20 2 26.5 10.5t6.5 30.5v1053q0 25 -6.5 32t-26.5 9l-129 14v160h508l643 -1071v852q0 25 -6 32t-27 9l-129 14v164h569v-164l-137 -16q-23 -2 -28 -9.5t-5 -29.5v-1264h-336l-653 1069v-852q0 -25 5 -32t28 -9l137 -16v-160h-569zM475 1823l111 116 l243 -165l242 165l113 -116l-248 -228h-213z" />
<glyph unicode="&#x148;" horiz-adv-x="1277" d="M41 901l25 166h358l16 -106l9 -5q176 131 360 131q164 0 236.5 -87t72.5 -261v-522q0 -25 5 -32t28 -9l102 -14v-162h-444v662q0 59 -5 91.5t-29.5 60.5t-74.5 28q-53 0 -114.5 -23.5t-98.5 -52.5v-549q0 -25 5.5 -32t27.5 -9l98 -14v-162h-565v164l92 12q20 2 26.5 10.5 t6.5 30.5v602q0 35 -26 43zM260 1454l123 109l233 -191l238 191l121 -107l-252 -264h-213z" />
<glyph unicode="&#x149;" horiz-adv-x="1382" d="M-61 1243l36 170q111 0 173.5 -25.5t62.5 -103.5q0 -47 -33 -113l-84 -165l-119 32l41 162q2 14 -12 23zM145 901l25 166h358l17 -106l8 -5q176 131 360 131q164 0 237 -87t73 -261v-522q0 -25 5 -32t27 -9l103 -14v-162h-445v662q0 59 -5 91.5t-29.5 60.5t-73.5 28 q-53 0 -114.5 -23.5t-98.5 -52.5v-549q0 -25 5 -32t28 -9l98 -14v-162h-565v164l92 12q20 2 26.5 10.5t6.5 30.5v602q0 35 -27 43z" />
<glyph unicode="&#x14a;" horiz-adv-x="1691" d="M78 0v160l129 14q20 2 26.5 10.5t6.5 30.5v1053q0 25 -6.5 32t-26.5 9l-129 14v160h508l643 -1047v828q0 25 -6 32t-27 9l-129 14v164h567v-164l-137 -16q-23 -2 -28 -9.5t-5 -29.5v-1373q0 -348 -383 -348q-121 0 -226 39t-150 78l88 170q35 -23 97 -44.5t114 -21.5 q76 0 113.5 39t37.5 140v57l-678 1069v-852q0 -25 5 -32t28 -9l137 -16v-160h-569z" />
<glyph unicode="&#x14b;" horiz-adv-x="1277" d="M41 901l25 166h358l16 -106l9 -5q176 131 360 131q164 0 236.5 -87t72.5 -261v-848q0 -348 -356 -348q-113 0 -206 34t-136 71l88 170q86 -53 178 -54q66 0 94.5 38t28.5 141v719q0 59 -5 91.5t-29.5 60.5t-74.5 28q-53 0 -114.5 -23.5t-98.5 -52.5v-549q0 -25 5.5 -32 t27.5 -9l98 -14v-162h-565v164l92 12q20 2 26.5 10.5t6.5 30.5v602q0 35 -26 43z" />
<glyph unicode="&#x14c;" horiz-adv-x="1554" d="M63 737q0 342 190.5 557t543.5 215q346 0 520 -207.5t174 -537.5q0 -371 -183.5 -580t-539.5 -209t-530.5 206t-174.5 556zM391 743q0 -516 389 -516q385 0 385 518q0 506 -372 506q-184 0 -293 -127t-109 -381zM469 1616v205h649v-205h-649z" />
<glyph unicode="&#x14d;" horiz-adv-x="1189" d="M55 526q0 262 139.5 411.5t413.5 149.5q270 0 398.5 -144t128.5 -394q0 -268 -139.5 -421t-413.5 -153q-268 0 -397.5 148.5t-129.5 402.5zM285 1227v205h649v-205h-649zM379 537q0 -346 217 -347q215 0 215 349q0 176 -51 251.5t-156 75.5q-225 1 -225 -329z" />
<glyph unicode="&#x14e;" horiz-adv-x="1554" d="M63 737q0 342 190.5 557t543.5 215q346 0 520 -207.5t174 -537.5q0 -371 -183.5 -580t-539.5 -209t-530.5 206t-174.5 556zM391 743q0 -516 389 -516q385 0 385 518q0 506 -372 506q-184 0 -293 -127t-109 -381zM449 1878l157 57q49 -141 187 -141q133 0 188 141l154 -57 q-37 -135 -119 -201.5t-223 -66.5q-276 0 -344 268z" />
<glyph unicode="&#x14f;" horiz-adv-x="1189" d="M55 526q0 262 139.5 411.5t413.5 149.5q270 0 398.5 -144t128.5 -394q0 -268 -139.5 -421t-413.5 -153q-268 0 -397.5 148.5t-129.5 402.5zM256 1450l156 59q53 -154 196 -153q135 0 197 153l156 -59q-74 -279 -353 -279q-280 0 -352 279zM379 537q0 -346 217 -347 q215 0 215 349q0 176 -51 251.5t-156 75.5q-225 1 -225 -329z" />
<glyph unicode="&#x150;" horiz-adv-x="1554" d="M63 737q0 342 190.5 557t543.5 215q346 0 520 -207.5t174 -537.5q0 -371 -183.5 -580t-539.5 -209t-530.5 206t-174.5 556zM391 743q0 -516 389 -516q385 0 385 518q0 506 -372 506q-184 0 -293 -127t-109 -381zM453 1686l315 348l152 -156l-361 -301zM844 1681l340 322 l137 -164l-391 -262z" />
<glyph unicode="&#x151;" horiz-adv-x="1189" d="M55 526q0 262 139.5 411.5t413.5 149.5q270 0 398.5 -144t128.5 -394q0 -268 -139.5 -421t-413.5 -153q-268 0 -397.5 148.5t-129.5 402.5zM256 1247l289 375l174 -152l-342 -323zM379 537q0 -346 217 -347q215 0 215 349q0 176 -51 251.5t-156 75.5q-225 1 -225 -329z M653 1247l289 375l172 -152l-342 -323z" />
<glyph unicode="&#x152;" horiz-adv-x="2041" d="M63 737q0 348 167 560t505 212q109 0 209 -26h981v-414l-225 10l-29 156q-6 27 -35 27h-399q117 -152 129 -404h434v-227h-436q-18 -266 -139 -412h456q29 0 33 23l33 180h223v-422h-1052q-94 -25 -211 -25q-644 0 -644 762zM401 743q0 -252 78 -373.5t238 -121.5 t238.5 119.5t78.5 377.5q0 492 -301 492q-160 0 -246 -128t-86 -366z" />
<glyph unicode="&#x153;" horiz-adv-x="1816" d="M55 539q0 252 135.5 400t389.5 148q268 0 387 -165q121 166 362 165q190 0 305 -121.5t115 -379.5q0 -57 -6 -119h-625q6 -129 63.5 -191.5t176.5 -62.5q123 0 307 68l76 -201q-219 -104 -400 -105q-264 0 -387 170q-135 -170 -393 -170q-260 0 -383 151t-123 413z M385 537q0 -340 211 -340t211 342q0 322 -203 321q-219 1 -219 -323zM1120 645h326q0 221 -156 221q-158 0 -170 -221z" />
<glyph unicode="&#x154;" horiz-adv-x="1406" d="M78 0v164l129 14q20 2 26.5 9.5t6.5 31.5v1047q0 23 -6.5 31t-26.5 10l-129 14v162h698q256 0 366.5 -115t110.5 -295q0 -274 -270 -393q70 -33 119 -164l112 -293q18 -33 62 -39l127 -20v-164h-447l-184 514q-18 53 -44 72.5t-77 19.5h-96v-385q0 -25 5 -32t28 -9 l143 -16v-164h-653zM446 1706l422 250l105 -203l-455 -182zM555 819h94q131 0 205 49.5t74 186.5q0 115 -64.5 160t-206.5 45h-102v-441z" />
<glyph unicode="&#x155;" horiz-adv-x="968" d="M41 901l22 166h361l25 -164h12q119 184 289 184q113 0 178 -18v-373l-246 9l-20 108q-4 23 -27 23q-66 0 -148 -72v-543q0 -25 5.5 -32t27.5 -9l203 -16v-164h-670v166l92 12q20 2 26.5 10.5t6.5 30.5v600q0 35 -26 43zM246 1251l313 357l168 -160l-367 -299z" />
<glyph unicode="&#x156;" horiz-adv-x="1406" d="M78 0v164l129 14q20 2 26.5 9.5t6.5 31.5v1047q0 23 -6.5 31t-26.5 10l-129 14v162h698q256 0 366.5 -115t110.5 -295q0 -274 -270 -393q70 -33 119 -164l112 -293q18 -33 62 -39l127 -20v-164h-447l-184 514q-18 53 -44 72.5t-77 19.5h-96v-385q0 -25 5 -32t28 -9 l143 -16v-164h-653zM555 819h94q131 0 205 49.5t74 186.5q0 115 -64.5 160t-206.5 45h-102v-441zM571 -313l43 200q88 -2 139.5 -10t91.5 -43t40 -98q0 -57 -39 -139l-94 -197l-134 39l44 196q6 18 -11 25z" />
<glyph unicode="&#x157;" horiz-adv-x="968" d="M41 901l22 166h361l25 -164h12q119 184 289 184q113 0 178 -18v-373l-246 9l-20 108q-4 23 -27 23q-66 0 -148 -72v-543q0 -25 5.5 -32t27.5 -9l203 -16v-164h-670v166l92 12q20 2 26.5 10.5t6.5 30.5v600q0 35 -26 43zM328 -313l43 200q88 -2 139 -10t91 -43t40 -98 q0 -57 -39 -139l-94 -197l-133 39l43 196q6 18 -10 25z" />
<glyph unicode="&#x158;" horiz-adv-x="1406" d="M78 0v164l129 14q20 2 26.5 9.5t6.5 31.5v1047q0 23 -6.5 31t-26.5 10l-129 14v162h698q256 0 366.5 -115t110.5 -295q0 -274 -270 -393q70 -33 119 -164l112 -293q18 -33 62 -39l127 -20v-164h-447l-184 514q-18 53 -44 72.5t-77 19.5h-96v-385q0 -25 5 -32t28 -9 l143 -16v-164h-653zM317 1823l111 116l244 -165l241 165l113 -116l-248 -228h-213zM555 819h94q131 0 205 49.5t74 186.5q0 115 -64.5 160t-206.5 45h-102v-441z" />
<glyph unicode="&#x159;" horiz-adv-x="968" d="M41 901l22 166h361l25 -164h12q119 184 289 184q113 0 178 -18v-373l-246 9l-20 108q-4 23 -27 23q-66 0 -148 -72v-543q0 -25 5.5 -32t27.5 -9l203 -16v-164h-670v166l92 12q20 2 26.5 10.5t6.5 30.5v600q0 35 -26 43zM117 1454l123 109l233 -191l238 191l120 -107 l-251 -264h-213z" />
<glyph unicode="&#x15a;" horiz-adv-x="1214" d="M92 59v400h230l40 -195q4 -31 35 -37q90 -23 172 -22q258 0 258 190q0 47 -18 82t-58 59.5t-78 38t-100 31.5q-201 57 -274 101q-178 106 -178 342q0 227 151.5 343.5t397.5 116.5q225 0 420 -82v-399l-232 21l-24 165q-4 31 -25 39q-72 23 -150 23q-113 0 -171 -47 t-58 -127q0 -39 18.5 -71t38 -50t70.5 -39.5t74.5 -30t93.5 -28.5q94 -29 149.5 -52.5t125 -72.5t103.5 -128t34 -188q0 -238 -161 -352.5t-415 -114.5q-129 0 -266 26.5t-203 57.5zM414 1706l422 250l104 -203l-455 -182z" />
<glyph unicode="&#x15b;" horiz-adv-x="997" d="M74 49v297l219 -16l20 -117q2 -27 25 -31q61 -20 158 -20q170 0 170 106q0 55 -47.5 82t-139.5 43l-77.5 14.5t-75 18.5t-77 27.5t-64.5 40t-56 57.5t-32.5 77t-14.5 101q0 178 130 268t323 90q225 0 376 -59v-297l-219 14l-20 107q-2 25 -21 29q-53 16 -131 16 q-160 0 -160 -104q0 -37 32 -61.5t70 -36t107 -27.5q18 -4 29 -6q74 -16 124 -35t106.5 -54.5t85 -97t28.5 -147.5q0 -178 -127 -265.5t-336 -87.5q-127 0 -249.5 25.5t-155.5 48.5zM289 1251l313 357l168 -160l-367 -299z" />
<glyph unicode="&#x15c;" horiz-adv-x="1214" d="M92 59v400h230l40 -195q4 -31 35 -37q90 -23 172 -22q258 0 258 190q0 47 -18 82t-58 59.5t-78 38t-100 31.5q-201 57 -274 101q-178 106 -178 342q0 227 151.5 343.5t397.5 116.5q225 0 420 -82v-399l-232 21l-24 165q-4 31 -25 39q-72 23 -150 23q-113 0 -171 -47 t-58 -127q0 -39 18.5 -71t38 -50t70.5 -39.5t74.5 -30t93.5 -28.5q94 -29 149.5 -52.5t125 -72.5t103.5 -128t34 -188q0 -238 -161 -352.5t-415 -114.5q-129 0 -266 26.5t-203 57.5zM285 1686l247 229h213l248 -229l-112 -115l-242 166l-242 -166z" />
<glyph unicode="&#x15d;" horiz-adv-x="997" d="M74 49v297l219 -16l20 -117q2 -27 25 -31q61 -20 158 -20q170 0 170 106q0 55 -47.5 82t-139.5 43l-77.5 14.5t-75 18.5t-77 27.5t-64.5 40t-56 57.5t-32.5 77t-14.5 101q0 178 130 268t323 90q225 0 376 -59v-297l-219 14l-20 107q-2 25 -21 29q-53 16 -131 16 q-160 0 -160 -104q0 -37 32 -61.5t70 -36t107 -27.5q18 -4 29 -6q74 -16 124 -35t106.5 -54.5t85 -97t28.5 -147.5q0 -178 -127 -265.5t-336 -87.5q-127 0 -249.5 25.5t-155.5 48.5zM158 1257l252 265h213l251 -265l-122 -106l-236 190l-235 -190z" />
<glyph unicode="&#x15e;" horiz-adv-x="1214" d="M92 59v400h230l40 -195q4 -31 35 -37q90 -23 172 -22q258 0 258 190q0 47 -18 82t-58 59.5t-78 38t-100 31.5q-201 57 -274 101q-178 106 -178 342q0 227 151.5 343.5t397.5 116.5q225 0 420 -82v-399l-232 21l-24 165q-4 31 -25 39q-72 23 -150 23q-113 0 -171 -47 t-58 -127q0 -39 18.5 -71t38 -50t70.5 -39.5t74.5 -30t93.5 -28.5q94 -29 149.5 -52.5t125 -72.5t103.5 -128t34 -188q0 -219 -137.5 -332.5t-362.5 -129.5l-8 -72q68 -12 115 -58.5t47 -125.5q0 -106 -77 -177t-233 -71q-59 0 -84 6l13 139q33 -4 51 -4q141 0 141 102 q0 82 -135 86l22 172q-262 16 -397 82z" />
<glyph unicode="&#x15f;" horiz-adv-x="997" d="M74 49v297l219 -16l20 -117q2 -27 25 -31q61 -20 158 -20q170 0 170 106q0 55 -47.5 82t-139.5 43l-77.5 14.5t-75 18.5t-77 27.5t-64.5 40t-56 57.5t-32.5 77t-14.5 101q0 178 130 268t323 90q225 0 376 -59v-297l-219 14l-20 107q-2 25 -21 29q-53 16 -131 16 q-160 0 -160 -104q0 -37 32 -61.5t70 -36t107 -27.5q18 -4 29 -6q74 -16 124 -35t106.5 -54.5t85 -97t28.5 -147.5q0 -168 -112.5 -254t-303.5 -97l-8 -69q68 -12 115 -58.5t47 -125.5q0 -106 -77 -177t-232 -71q-59 0 -84 6l12 139q33 -4 51 -4q141 0 142 102q0 82 -136 86 l23 175q-102 8 -191 30.5t-114 38.5z" />
<glyph unicode="&#x160;" horiz-adv-x="1214" d="M92 59v400h230l40 -195q4 -31 35 -37q90 -23 172 -22q258 0 258 190q0 47 -18 82t-58 59.5t-78 38t-100 31.5q-201 57 -274 101q-178 106 -178 342q0 227 151.5 343.5t397.5 116.5q225 0 420 -82v-399l-232 21l-24 165q-4 31 -25 39q-72 23 -150 23q-113 0 -171 -47 t-58 -127q0 -39 18.5 -71t38 -50t70.5 -39.5t74.5 -30t93.5 -28.5q94 -29 149.5 -52.5t125 -72.5t103.5 -128t34 -188q0 -238 -161 -352.5t-415 -114.5q-129 0 -266 26.5t-203 57.5zM285 1823l110 116l244 -165l242 165l112 -116l-248 -228h-213z" />
<glyph unicode="&#x161;" horiz-adv-x="997" d="M74 49v297l219 -16l20 -117q2 -27 25 -31q61 -20 158 -20q170 0 170 106q0 55 -47.5 82t-139.5 43l-77.5 14.5t-75 18.5t-77 27.5t-64.5 40t-56 57.5t-32.5 77t-14.5 101q0 178 130 268t323 90q225 0 376 -59v-297l-219 14l-20 107q-2 25 -21 29q-53 16 -131 16 q-160 0 -160 -104q0 -37 32 -61.5t70 -36t107 -27.5q18 -4 29 -6q74 -16 124 -35t106.5 -54.5t85 -97t28.5 -147.5q0 -178 -127 -265.5t-336 -87.5q-127 0 -249.5 25.5t-155.5 48.5zM160 1454l123 109l233 -191l238 191l120 -107l-251 -264h-213z" />
<glyph unicode="&#x162;" horiz-adv-x="1421" d="M51 1059v424h1319v-424h-223l-33 178q-4 23 -33 23h-211v-1043q0 -23 5.5 -30t27.5 -9l225 -16v-162h-360l-12 -92q68 -12 115 -58.5t47 -125.5q0 -106 -77 -177t-233 -71q-59 0 -84 6l13 139q33 -4 51 -4q141 0 141 102q0 82 -135 86l24 195h-309v162l211 14 q20 2 26.5 9.5t6.5 31.5v1043h-211q-29 0 -33 -23l-33 -178h-225z" />
<glyph unicode="&#x163;" horiz-adv-x="892" d="M16 862v182q135 14 196.5 90t78.5 244h194v-291q0 -20 17 -20h289v-205h-306v-489q0 -94 29 -131t111 -37q78 0 166 33l55 -181q-141 -72 -295 -80l-8 -69q68 -12 115 -58.5t47 -125.5q0 -106 -77 -177t-233 -71q-59 0 -84 6l13 139q33 -4 51 -4q141 0 141 102 q0 82 -135 86l22 179q-121 20 -174 97t-53 224v537q0 20 -16 20h-144z" />
<glyph unicode="&#x164;" horiz-adv-x="1421" d="M51 1059v424h1319v-424h-223l-33 178q-4 23 -33 23h-211v-1043q0 -23 5.5 -30t27.5 -9l225 -16v-162h-819v162l211 14q20 2 26.5 9.5t6.5 31.5v1043h-211q-29 0 -33 -23l-33 -178h-225zM358 1823l111 116l244 -165l241 165l113 -116l-248 -228h-213z" />
<glyph unicode="&#x165;" horiz-adv-x="892" d="M16 862v182q135 14 196.5 90t78.5 244h194v-291q0 -20 17 -20h289v-205h-306v-489q0 -94 29 -131t111 -37q78 0 166 33l55 -181q-168 -82 -334 -82q-180 0 -258 78t-78 252v537q0 20 -16 20h-144zM573 1178q41 160 41 241q0 78 -26 127l215 82q39 -57 39 -135 q0 -43 -13 -92q-37 -129 -108 -266z" />
<glyph unicode="&#x166;" horiz-adv-x="1421" d="M51 1059v424h1319v-424h-223l-33 178q-4 23 -33 23h-211v-451h215v-205h-215v-387q0 -23 5.5 -30t27.5 -9l225 -16v-162h-819v162l211 14q20 2 26.5 9.5t6.5 31.5v387h-219v205h219v451h-211q-29 0 -33 -23l-33 -178h-225z" />
<glyph unicode="&#x167;" horiz-adv-x="892" d="M16 862v182q135 14 196.5 90t78.5 244h194v-291q0 -20 17 -20h289v-205h-306v-203h312v-204h-312v-82q0 -94 29 -131t111 -37q78 0 166 33l55 -181q-168 -82 -334 -82q-180 0 -258 78t-78 252v150h-153v204h153v183q0 20 -16 20h-144z" />
<glyph unicode="&#x168;" horiz-adv-x="1607" d="M61 1321v162h648v-162l-138 -16q-23 -2 -27.5 -9.5t-4.5 -29.5v-670q0 -188 58 -275.5t218 -87.5q164 0 230.5 80t66.5 275v678q0 25 -6 32t-27 9l-129 14v162h606v-162l-137 -16q-23 -2 -28 -9.5t-5 -29.5v-736q0 -283 -151.5 -419t-431.5 -136q-303 0 -442.5 137.5 t-139.5 426.5v727q0 25 -6 32t-27 9zM465 1669l61 105q61 102 136 102q47 0 129 -25q145 -39 202 -51q23 -6 33 8l59 64l121 -74l-45 -82q-35 -63 -63.5 -90t-71.5 -27q-29 0 -147 29q-197 49 -201 49q-14 0 -33 -16l-67 -64z" />
<glyph unicode="&#x169;" horiz-adv-x="1275" d="M41 899l20 168h420v-678q0 -96 22.5 -134t86.5 -38q109 0 211 94v527q0 25 -5 30.5t-28 10.5l-88 20l22 168h408v-850q0 -23 5 -30t24 -9l102 -14v-164h-381l-16 111l-10 2q-53 -41 -94.5 -65.5t-115 -48.5t-155.5 -24q-158 0 -227.5 89.5t-69.5 271.5v500q0 25 -5 31.5 t-28 11.5zM244 1264l61 104q61 102 135 102q47 0 129 -24q145 -39 203 -51q23 -6 33 8l59 63l121 -73l-45 -82q-35 -63 -63.5 -90t-71.5 -27q-29 0 -148 29q-197 49 -200 49q-14 0 -33 -17l-68 -63z" />
<glyph unicode="&#x16a;" horiz-adv-x="1607" d="M61 1321v162h648v-162l-138 -16q-23 -2 -27.5 -9.5t-4.5 -29.5v-670q0 -188 58 -275.5t218 -87.5q164 0 230.5 80t66.5 275v678q0 25 -6 32t-27 9l-129 14v162h606v-162l-137 -16q-23 -2 -28 -9.5t-5 -29.5v-736q0 -283 -151.5 -419t-431.5 -136q-303 0 -442.5 137.5 t-139.5 426.5v727q0 25 -6 32t-27 9zM510 1608v204h649v-204h-649z" />
<glyph unicode="&#x16b;" horiz-adv-x="1275" d="M41 899l20 168h420v-678q0 -96 22.5 -134t86.5 -38q109 0 211 94v527q0 25 -5 30.5t-28 10.5l-88 20l22 168h408v-850q0 -23 5 -30t24 -9l102 -14v-164h-381l-16 111l-10 2q-53 -41 -94.5 -65.5t-115 -48.5t-155.5 -24q-158 0 -227.5 89.5t-69.5 271.5v500q0 25 -5 31.5 t-28 11.5zM289 1227v205h649v-205h-649z" />
<glyph unicode="&#x16c;" horiz-adv-x="1607" d="M61 1321v162h648v-162l-138 -16q-23 -2 -27.5 -9.5t-4.5 -29.5v-670q0 -188 58 -275.5t218 -87.5q164 0 230.5 80t66.5 275v678q0 25 -6 32t-27 9l-129 14v162h606v-162l-137 -16q-23 -2 -28 -9.5t-5 -29.5v-736q0 -283 -151.5 -419t-431.5 -136q-303 0 -442.5 137.5 t-139.5 426.5v727q0 25 -6 32t-27 9zM489 1870l158 57q49 -141 187 -141q133 0 188 141l154 -57q-37 -135 -119 -201.5t-223 -66.5q-277 0 -345 268z" />
<glyph unicode="&#x16d;" horiz-adv-x="1275" d="M41 899l20 168h420v-678q0 -96 22.5 -134t86.5 -38q109 0 211 94v527q0 25 -5 30.5t-28 10.5l-88 20l22 168h408v-850q0 -23 5 -30t24 -9l102 -14v-164h-381l-16 111l-10 2q-53 -41 -94.5 -65.5t-115 -48.5t-155.5 -24q-158 0 -227.5 89.5t-69.5 271.5v500q0 25 -5 31.5 t-28 11.5zM260 1450l156 59q53 -154 196 -153q135 0 197 153l156 -59q-74 -279 -353 -279q-280 0 -352 279z" />
<glyph unicode="&#x16e;" horiz-adv-x="1607" d="M61 1321v162h648v-162l-138 -16q-23 -2 -27.5 -9.5t-4.5 -29.5v-670q0 -188 58 -275.5t218 -87.5q164 0 230.5 80t66.5 275v678q0 25 -6 32t-27 9l-129 14v162h606v-162l-137 -16q-23 -2 -28 -9.5t-5 -29.5v-736q0 -283 -151.5 -419t-431.5 -136q-303 0 -442.5 137.5 t-139.5 426.5v727q0 25 -6 32t-27 9zM612 1772q0 98 64.5 159.5t157 61.5t156 -60.5t63.5 -157t-61.5 -156.5t-158 -60t-159 59.5t-62.5 153.5zM756 1776q0 -82 78 -82q76 0 75 82q0 86 -75 86q-78 0 -78 -86z" />
<glyph unicode="&#x16f;" horiz-adv-x="1275" d="M41 899l20 168h420v-678q0 -96 22.5 -134t86.5 -38q109 0 211 94v527q0 25 -5 30.5t-28 10.5l-88 20l22 168h408v-850q0 -23 5 -30t24 -9l102 -14v-164h-381l-16 111l-10 2q-53 -41 -94.5 -65.5t-115 -48.5t-155.5 -24q-158 0 -227.5 89.5t-69.5 271.5v500q0 25 -5 31.5 t-28 11.5zM408 1352q0 92 59 148t145 56t144.5 -54t58.5 -144q0 -92 -56.5 -147.5t-146.5 -55.5t-147 54.5t-57 142.5zM539 1356q0 -76 73 -76q72 0 72 78q0 76 -72 76q-73 0 -73 -78z" />
<glyph unicode="&#x170;" horiz-adv-x="1607" d="M61 1321v162h648v-162l-138 -16q-23 -2 -27.5 -9.5t-4.5 -29.5v-670q0 -188 58 -275.5t218 -87.5q164 0 230.5 80t66.5 275v678q0 25 -6 32t-27 9l-129 14v162h606v-162l-137 -16q-23 -2 -28 -9.5t-5 -29.5v-736q0 -283 -151.5 -419t-431.5 -136q-303 0 -442.5 137.5 t-139.5 426.5v727q0 25 -6 32t-27 9zM494 1677l315 348l152 -155l-361 -301zM885 1673l340 322l137 -164l-391 -262z" />
<glyph unicode="&#x171;" horiz-adv-x="1275" d="M41 899l20 168h420v-678q0 -96 22.5 -134t86.5 -38q109 0 211 94v527q0 25 -5 30.5t-28 10.5l-88 20l22 168h408v-850q0 -23 5 -30t24 -9l102 -14v-164h-381l-16 111l-10 2q-53 -41 -94.5 -65.5t-115 -48.5t-155.5 -24q-158 0 -227.5 89.5t-69.5 271.5v500q0 25 -5 31.5 t-28 11.5zM260 1247l289 375l174 -152l-342 -323zM657 1247l289 375l172 -152l-342 -323z" />
<glyph unicode="&#x172;" horiz-adv-x="1607" d="M61 1321v162h648v-162l-138 -16q-23 -2 -27.5 -9.5t-4.5 -29.5v-670q0 -188 58 -275.5t218 -87.5q164 0 230.5 80t66.5 275v678q0 25 -6 32t-27 9l-129 14v162h606v-162l-137 -16q-23 -2 -28 -9.5t-5 -29.5v-736q0 -193 -63 -313.5t-197 -198.5q-76 -45 -134 -117.5 t-58 -133.5q0 -59 59 -60q41 0 107 21l57 -152q-119 -55 -242 -55q-109 0 -164 49t-55 133q0 137 162 274q-18 -2 -55 -2q-303 0 -442.5 137.5t-139.5 426.5v727q0 25 -6 32t-27 9z" />
<glyph unicode="&#x173;" horiz-adv-x="1275" d="M41 899l20 168h420v-678q0 -96 22.5 -134t86.5 -38q109 0 211 94v527q0 25 -5 30.5t-28 10.5l-88 20l22 168h408v-850q0 -23 5 -30t24 -9l102 -14v-164q-86 -35 -147.5 -102.5t-61.5 -130.5q0 -59 60 -60q41 0 106 21l57 -152q-119 -55 -241 -55q-109 0 -164 49t-55 133 q0 88 61.5 167t151.5 130h-148l-16 111l-10 2q-53 -41 -94.5 -65.5t-115 -48.5t-155.5 -24q-158 0 -227.5 89.5t-69.5 271.5v500q0 25 -5 31.5t-28 11.5z" />
<glyph unicode="&#x174;" horiz-adv-x="2136" d="M12 1323l21 160h626v-160l-172 -20l209 -1002h17l235 907h312l233 -913h16l211 1008l-172 20l21 160h553v-160l-97 -23q-37 -6 -47 -36l-290 -1264h-414l-201 750h-12l-189 -750h-401l-309 1264q-6 27 -45 36zM758 1686l248 229h213l247 -229l-112 -115l-242 166 l-242 -166z" />
<glyph unicode="&#x175;" horiz-adv-x="1800" d="M6 901l33 166h518v-170l-115 -12l164 -576h15l182 731h309l176 -731h12l154 576l-117 12l27 170h430v-166l-74 -14q-39 -6 -49 -41l-252 -846h-323l-160 686h-12l-162 -686h-369l-258 848q-8 27 -43 35zM590 1257l252 265h213l252 -265l-123 -106l-236 190l-235 -190z " />
<glyph unicode="&#x176;" horiz-adv-x="1384" d="M6 1323l21 160h614v-160l-160 -18l248 -484h16l248 484l-157 18l20 160h522v-160l-86 -23q-39 -10 -51 -38l-371 -705v-340q0 -23 5.5 -30t27.5 -9l217 -16v-162h-803v162l205 14q20 2 26.5 9.5t6.5 31.5v336l-408 713q-14 23 -49 34zM369 1686l247 229h213l248 -229 l-112 -115l-242 166l-242 -166z" />
<glyph unicode="&#x177;" horiz-adv-x="1267" d="M6 901l33 166h543v-166l-129 -16l227 -541h14l217 541l-133 16l27 166h457v-166l-66 -12q-39 -6 -51 -35l-451 -1102l213 -22v-164h-682v166l160 18q33 2 51 45l88 195l-391 856q-8 27 -43 35zM295 1257l252 265h213l252 -265l-123 -106l-236 190l-235 -190z" />
<glyph unicode="&#x178;" horiz-adv-x="1384" d="M6 1323l21 160h614v-160l-160 -18l248 -484h16l248 484l-157 18l20 160h522v-160l-86 -23q-39 -10 -51 -38l-371 -705v-340q0 -23 5.5 -30t27.5 -9l217 -16v-162h-803v162l205 14q20 2 26.5 9.5t6.5 31.5v336l-408 713q-14 23 -49 34zM362 1743q0 63 40 102t105.5 39 t105.5 -39t40 -102q0 -66 -40 -105t-105.5 -39t-105.5 39t-40 105zM788 1743q0 63 40 102t105.5 39t105.5 -39t40 -102q0 -66 -40 -105t-105.5 -39t-105.5 39t-40 105z" />
<glyph unicode="&#x179;" horiz-adv-x="1376" d="M104 0v199l766 1063h-454q-29 0 -33 -23l-39 -192l-221 -7v443h1124v-207l-755 -1057h499q29 0 33 23l39 219h221v-461h-1180zM453 1706l421 250l105 -203l-455 -182z" />
<glyph unicode="&#x17a;" horiz-adv-x="1058" d="M70 721v346h899v-176l-539 -701h301q18 0 23 27l24 141l223 11v-369h-929v172l549 702h-287q-18 0 -23 -26l-24 -115zM289 1251l313 357l168 -160l-367 -299z" />
<glyph unicode="&#x17b;" horiz-adv-x="1376" d="M104 0v199l766 1063h-454q-29 0 -33 -23l-39 -192l-221 -7v443h1124v-207l-755 -1057h499q29 0 33 23l39 219h221v-461h-1180zM494 1784q0 88 48 134t136 46q90 0 138 -46t48 -134t-49 -136.5t-137 -48.5t-136 48.5t-48 136.5z" />
<glyph unicode="&#x17c;" horiz-adv-x="1058" d="M70 721v346h899v-176l-539 -701h301q18 0 23 27l24 141l223 11v-369h-929v172l549 702h-287q-18 0 -23 -26l-24 -115zM332 1421q0 88 48 134.5t136 46.5q90 0 138 -46.5t48 -134.5q0 -90 -48 -138t-138 -48q-88 0 -136 49t-48 137z" />
<glyph unicode="&#x17d;" horiz-adv-x="1376" d="M104 0v199l766 1063h-454q-29 0 -33 -23l-39 -192l-221 -7v443h1124v-207l-755 -1057h499q29 0 33 23l39 219h221v-461h-1180zM324 1823l110 116l244 -165l242 165l112 -116l-248 -228h-213z" />
<glyph unicode="&#x17e;" horiz-adv-x="1058" d="M70 721v346h899v-176l-539 -701h301q18 0 23 27l24 141l223 11v-369h-929v172l549 702h-287q-18 0 -23 -26l-24 -115zM160 1454l123 109l233 -191l238 191l120 -107l-251 -264h-213z" />
<glyph unicode="&#x17f;" horiz-adv-x="894" d="M55 0v164l115 12q20 2 26.5 10.5t6.5 32.5v961q0 203 110.5 297t327.5 94q80 0 139.5 -12.5t113.5 -42t84 -90t30 -150.5l-287 -35q2 76 -19.5 102.5t-74.5 26.5q-72 0 -93.5 -36t-21.5 -117v-992q0 -25 7 -32t30 -9l250 -22v-162h-744z" />
<glyph unicode="&#x192;" horiz-adv-x="1114" d="M-236 -125l84 188q115 -76 226 -75q78 0 116.5 34.5t59.5 143.5l72 401q2 20 -15 21h-184l31 194h204l31 174q37 207 129 296t283 89q203 0 352 -88l-49 -299l-193 19l-2 121q0 25 -20 32q-29 12 -78 13q-63 0 -95 -38t-46 -120l-31 -178q-2 -20 16 -21h256l-32 -194 h-277l-65 -391q-41 -238 -144.5 -330t-300.5 -92q-90 0 -182.5 28.5t-145.5 71.5z" />
<glyph unicode="&#x218;" horiz-adv-x="1214" d="M92 59v400h230l40 -195q4 -31 35 -37q90 -23 172 -22q258 0 258 190q0 47 -18 82t-58 59.5t-78 38t-100 31.5q-201 57 -274 101q-178 106 -178 342q0 227 151.5 343.5t397.5 116.5q225 0 420 -82v-399l-232 21l-24 165q-4 31 -25 39q-72 23 -150 23q-113 0 -171 -47 t-58 -127q0 -39 18.5 -71t38 -50t70.5 -39.5t74.5 -30t93.5 -28.5q94 -29 149.5 -52.5t125 -72.5t103.5 -128t34 -188q0 -238 -161 -352.5t-415 -114.5q-129 0 -266 26.5t-203 57.5zM428 -313l43 200q88 -2 139.5 -10t91 -43t39.5 -98q0 -57 -39 -139l-94 -197l-133 39 l43 196q6 18 -10 25z" />
<glyph unicode="&#x219;" horiz-adv-x="997" d="M74 49v297l219 -16l20 -117q2 -27 25 -31q61 -20 158 -20q170 0 170 106q0 55 -47.5 82t-139.5 43l-77.5 14.5t-75 18.5t-77 27.5t-64.5 40t-56 57.5t-32.5 77t-14.5 101q0 178 130 268t323 90q225 0 376 -59v-297l-219 14l-20 107q-2 25 -21 29q-53 16 -131 16 q-160 0 -160 -104q0 -37 32 -61.5t70 -36t107 -27.5q18 -4 29 -6q74 -16 124 -35t106.5 -54.5t85 -97t28.5 -147.5q0 -178 -127 -265.5t-336 -87.5q-127 0 -249.5 25.5t-155.5 48.5zM342 -313l43 200q88 -2 139 -10t91 -43t40 -98q0 -57 -39 -139l-94 -197l-133 39l43 196 q6 18 -10 25z" />
<glyph unicode="&#x21a;" horiz-adv-x="1421" d="M51 1059v424h1319v-424h-223l-33 178q-4 23 -33 23h-211v-1043q0 -23 5.5 -30t27.5 -9l225 -16v-162h-819v162l211 14q20 2 26.5 9.5t6.5 31.5v1043h-211q-29 0 -33 -23l-33 -178h-225zM561 -313l43 200q88 -2 139.5 -10t91 -43t39.5 -98q0 -57 -38 -139l-95 -197 l-133 39l43 196q6 18 -10 25z" />
<glyph unicode="&#x21b;" horiz-adv-x="892" d="M16 862v182q135 14 196.5 90t78.5 244h194v-291q0 -20 17 -20h289v-205h-306v-489q0 -94 29 -131t111 -37q78 0 166 33l55 -181q-168 -82 -334 -82q-180 0 -258 78t-78 252v537q0 20 -16 20h-144zM287 -313l43 200q88 -2 139 -10t91 -43t40 -98q0 -57 -39 -139l-94 -197 l-133 39l43 196q6 18 -10 25z" />
<glyph unicode="&#x237;" horiz-adv-x="622" d="M-215 -352l88 170q86 -53 178 -54q66 0 94.5 38t28.5 141v876q0 35 -27 43l-116 39l24 166h428v-1176q0 -348 -356 -348q-113 0 -206 34t-136 71z" />
<glyph unicode="&#x2bc;" d="M367 1282l36 170q111 0 173.5 -25.5t62.5 -103.5q0 -47 -33 -113l-84 -166l-119 33l41 162q2 14 -12 23z" />
<glyph unicode="&#x2c6;" d="M154 1257l252 265h212l252 -265l-122 -106l-236 190l-236 -190z" />
<glyph unicode="&#x2c7;" d="M154 1454l122 109l234 -191l238 191l120 -107l-252 -264h-213z" />
<glyph unicode="&#x2c9;" d="M186 1227v205h650v-205h-650z" />
<glyph unicode="&#x2d8;" d="M160 1450l155 59q53 -154 197 -153q135 0 197 153l155 -59q-74 -279 -352 -279q-280 0 -352 279z" />
<glyph unicode="&#x2d9;" d="M328 1421q0 88 48 134.5t136 46.5q90 0 138 -46.5t48 -134.5q0 -90 -48 -138t-138 -48q-88 0 -136 49t-48 137z" />
<glyph unicode="&#x2da;" d="M307 1352q0 92 59.5 148t145.5 56t144.5 -54t58.5 -144q0 -92 -56.5 -147.5t-146.5 -55.5t-147.5 54.5t-57.5 142.5zM438 1356q0 -76 74 -76q72 0 72 78q0 76 -72 76q-74 0 -74 -78z" />
<glyph unicode="&#x2db;" d="M281 -297q0 174 256 342l145 -39q-164 -141 -164 -239q0 -59 60 -60q41 0 106 21l57 -152q-119 -55 -241 -55q-109 0 -164 49t-55 133z" />
<glyph unicode="&#x2dc;" d="M141 1264l62 104q61 102 135 102q47 0 129 -24q145 -39 203 -51q23 -6 32 8l60 63l121 -73l-45 -82q-35 -63 -64 -90t-72 -27q-29 0 -147 29q-197 49 -201 49q-14 0 -32 -17l-68 -63z" />
<glyph unicode="&#x2dd;" d="M113 1247l288 375l174 -152l-342 -323zM510 1247l289 375l172 -152l-342 -323z" />
<glyph unicode="&#x394;" horiz-adv-x="1464" d="M18 0l519 1483h374l535 -1483h-1428zM373 231h653l-330 969h-12z" />
<glyph unicode="&#x3a9;" horiz-adv-x="1660" d="M82 0v356h213l27 -116q4 -23 32 -23h174v78q-184 70 -280 212t-96 341q0 295 190 478t514 183q346 0 516 -162.5t170 -457.5q0 -215 -114.5 -366.5t-288.5 -227.5v-78h168q29 0 32 23l27 116h213v-356h-651v389q119 47 208 162t89 299q0 408 -373 407 q-172 0 -274.5 -109.5t-102.5 -320.5q0 -156 73 -268.5t193 -167.5v-391h-659z" />
<glyph unicode="&#x3bc;" horiz-adv-x="1288" d="M166 -360v1427h309v-678q0 -47 4 -76.5t32 -60.5t79 -31q109 0 205 90v756h309v-850q0 -37 29 -39l102 -14v-164h-379l-16 111h-13q-113 -135 -264 -136q-61 0 -110 25l-7 -8l39 -352h-319z" />
<glyph unicode="&#x3c0;" horiz-adv-x="1374" d="M88 901v166h1198v-166l-102 -16q-23 -2 -28 -9.5t-5 -29.5v-629q0 -25 5 -32t28 -9l92 -14v-162h-434v862h-312v-862h-434v162l92 14q23 4 28 10.5t5 26.5v633q0 25 -5 32t-28 9z" />
<glyph unicode="&#x1e80;" horiz-adv-x="2136" d="M12 1323l21 160h626v-160l-172 -20l209 -1002h17l235 907h312l233 -913h16l211 1008l-172 20l21 160h553v-160l-97 -23q-37 -6 -47 -36l-290 -1264h-414l-201 750h-12l-189 -750h-401l-309 1264q-6 27 -45 36zM829 1753l105 203l422 -250l-72 -137z" />
<glyph unicode="&#x1e81;" horiz-adv-x="1800" d="M6 901l33 166h518v-170l-115 -12l164 -576h15l182 731h309l176 -731h12l154 576l-117 12l27 170h430v-166l-74 -14q-39 -6 -49 -41l-252 -846h-323l-160 686h-12l-162 -686h-369l-258 848q-8 27 -43 35zM709 1448l168 160l313 -357l-117 -102z" />
<glyph unicode="&#x1e82;" horiz-adv-x="2136" d="M12 1323l21 160h626v-160l-172 -20l209 -1002h17l235 907h312l233 -913h16l211 1008l-172 20l21 160h553v-160l-97 -23q-37 -6 -47 -36l-290 -1264h-414l-201 750h-12l-189 -750h-401l-309 1264q-6 27 -45 36zM887 1706l422 250l104 -203l-455 -182z" />
<glyph unicode="&#x1e83;" horiz-adv-x="1800" d="M6 901l33 166h518v-170l-115 -12l164 -576h15l182 731h309l176 -731h12l154 576l-117 12l27 170h430v-166l-74 -14q-39 -6 -49 -41l-252 -846h-323l-160 686h-12l-162 -686h-369l-258 848q-8 27 -43 35zM721 1251l313 357l168 -160l-366 -299z" />
<glyph unicode="&#x1e84;" horiz-adv-x="2136" d="M12 1323l21 160h626v-160l-172 -20l209 -1002h17l235 907h312l233 -913h16l211 1008l-172 20l21 160h553v-160l-97 -23q-37 -6 -47 -36l-290 -1264h-414l-201 750h-12l-189 -750h-401l-309 1264q-6 27 -45 36zM752 1743q0 63 39.5 102t105.5 39t105.5 -39t39.5 -102 q0 -66 -39.5 -105t-105.5 -39t-105.5 39t-39.5 105zM1178 1743q0 63 39.5 102t105.5 39t105.5 -39t39.5 -102q0 -66 -39.5 -105t-105.5 -39t-105.5 39t-39.5 105z" />
<glyph unicode="&#x1e85;" horiz-adv-x="1800" d="M6 901l33 166h518v-170l-115 -12l164 -576h15l182 731h309l176 -731h12l154 576l-117 12l27 170h430v-166l-74 -14q-39 -6 -49 -41l-252 -846h-323l-160 686h-12l-162 -686h-369l-258 848q-8 27 -43 35zM588 1364q0 66 40 104.5t105.5 38.5t105.5 -38.5t40 -104.5 t-40 -104.5t-105.5 -38.5t-105.5 40t-40 103zM1014 1364q0 66 40 104.5t105.5 38.5t105.5 -38.5t40 -104.5t-40 -104.5t-105.5 -38.5t-105.5 40t-40 103z" />
<glyph unicode="&#x1ef2;" horiz-adv-x="1384" d="M6 1323l21 160h614v-160l-160 -18l248 -484h16l248 484l-157 18l20 160h522v-160l-86 -23q-39 -10 -51 -38l-371 -705v-340q0 -23 5.5 -30t27.5 -9l217 -16v-162h-803v162l205 14q20 2 26.5 9.5t6.5 31.5v336l-408 713q-14 23 -49 34zM440 1753l105 203l422 -250 l-72 -137z" />
<glyph unicode="&#x1ef3;" horiz-adv-x="1267" d="M6 901l33 166h543v-166l-129 -16l227 -541h14l217 541l-133 16l27 166h457v-166l-66 -12q-39 -6 -51 -35l-451 -1102l213 -22v-164h-682v166l160 18q33 2 51 45l88 195l-391 856q-8 27 -43 35zM414 1448l168 160l313 -357l-117 -102z" />
<glyph unicode="&#x2000;" horiz-adv-x="1015" />
<glyph unicode="&#x2001;" horiz-adv-x="2033" />
<glyph unicode="&#x2002;" horiz-adv-x="1015" />
<glyph unicode="&#x2003;" horiz-adv-x="2033" />
<glyph unicode="&#x2004;" horiz-adv-x="677" />
<glyph unicode="&#x2005;" horiz-adv-x="507" />
<glyph unicode="&#x2006;" horiz-adv-x="337" />
<glyph unicode="&#x2007;" horiz-adv-x="337" />
<glyph unicode="&#x2008;" horiz-adv-x="253" />
<glyph unicode="&#x2009;" horiz-adv-x="405" />
<glyph unicode="&#x200a;" horiz-adv-x="112" />
<glyph unicode="&#x2010;" horiz-adv-x="636" d="M41 465v260h555v-260h-555z" />
<glyph unicode="&#x2011;" horiz-adv-x="636" d="M41 465v260h555v-260h-555z" />
<glyph unicode="&#x2012;" horiz-adv-x="636" d="M41 465v260h555v-260h-555z" />
<glyph unicode="&#x2013;" d="M0 465v219h1022v-219h-1022z" />
<glyph unicode="&#x2014;" horiz-adv-x="2048" d="M0 465v219h2048v-219h-2048z" />
<glyph unicode="&#x2018;" horiz-adv-x="460" d="M82 1249q0 53 39 131l98 207l129 -39l-47 -202q-2 -16 10 -23l78 -27l-41 -196q-86 2 -137 10t-90 43t-39 96z" />
<glyph unicode="&#x2019;" horiz-adv-x="460" d="M72 1391l41 196q63 0 104 -5t82 -19.5t60.5 -46t19.5 -78.5q0 -57 -37 -131l-98 -207l-131 39l47 202q6 18 -10 25z" />
<glyph unicode="&#x201a;" horiz-adv-x="473" d="M92 14l41 197q131 -2 199.5 -30.5t68.5 -119.5q0 -49 -39 -133l-98 -204l-129 38l45 199q6 20 -10 27z" />
<glyph unicode="&#x201c;" horiz-adv-x="829" d="M82 1249q0 53 39 131l98 207l129 -39l-47 -202q-2 -16 10 -23l78 -27l-41 -196q-86 2 -137 10t-90 43t-39 96zM451 1249q0 53 38 131l99 207l129 -39l-47 -202q-2 -16 10 -23l78 -27l-41 -196q-86 2 -137.5 10t-90 43t-38.5 96z" />
<glyph unicode="&#x201d;" horiz-adv-x="829" d="M72 1391l41 196q63 0 104 -5t82 -19.5t60.5 -46t19.5 -78.5q0 -57 -37 -131l-98 -207l-131 39l47 202q6 18 -10 25zM440 1391l41 196q63 0 104.5 -5t82.5 -19.5t60.5 -46t19.5 -78.5q0 -57 -37 -131l-99 -207l-131 39l47 202q6 18 -10 25z" />
<glyph unicode="&#x201e;" horiz-adv-x="841" d="M92 14l41 197q131 -2 199.5 -30.5t68.5 -119.5q0 -49 -39 -133l-98 -204l-129 38l45 199q6 20 -10 27zM461 14l41 197q131 -2 199.5 -30.5t68.5 -119.5q0 -49 -39 -133l-98 -204l-129 38l45 199q6 20 -10 27z" />
<glyph unicode="&#x2020;" horiz-adv-x="823" d="M55 811v213h152l170 -72v-67l-170 -74h-152zM268 655l109 230h69l107 -230l-39 -438v-387h-205v387zM303 1149v172h215v-172l-72 -197h-69zM446 885v67l172 72h150v-213h-150z" />
<glyph unicode="&#x2021;" horiz-adv-x="897" d="M92 125v213h152l170 -72l-109 238v153l109 228l-170 -74h-152v213h152l170 -72l-74 197v172h215v-172l-72 -197l172 72h150v-213h-150l-172 74v67h-69v-67h69l107 -228v-153l-107 -238h-69v-67h69l72 -197v-172h-215v172l74 197l-170 -74h-152zM483 199v67l172 72h150 v-213h-150z" />
<glyph unicode="&#x2022;" horiz-adv-x="843" d="M113 571q0 299 307 299q152 0 231.5 -75.5t79.5 -223t-80 -223.5t-231 -76q-307 0 -307 299z" />
<glyph unicode="&#x2026;" horiz-adv-x="1443" d="M82 135q0 160 176 160q174 0 174 -160t-174 -160q-176 0 -176 160zM549 135q0 160 176 160q174 0 174 -160t-174 -160q-176 0 -176 160zM1012 135q0 160 176 160q174 0 174 -160t-174 -160q-176 0 -176 160z" />
<glyph unicode="&#x202f;" horiz-adv-x="405" />
<glyph unicode="&#x2030;" horiz-adv-x="2308" d="M66 928q0 164 83.5 253t239.5 89q309 0 309 -324q0 -162 -84 -252t-239 -90q-309 0 -309 324zM272 -35l772 1307h285l-770 -1307h-287zM283 940q0 -182 100 -182t100 184q0 90 -22.5 131t-75.5 41q-102 0 -102 -174zM918 299q0 164 83.5 253t239.5 89q309 0 309 -324 q0 -162 -84 -252t-239 -90q-309 0 -309 324zM1135 311q0 -182 100 -182t100 184q0 90 -22.5 131t-75.5 41q-102 0 -102 -174zM1608 299q0 164 84 253t239 89q309 0 310 -324q0 -162 -84 -252t-240 -90q-309 0 -309 324zM1825 311q0 -182 100 -182t100 184q0 90 -22.5 131 t-75.5 41q-102 0 -102 -174z" />
<glyph unicode="&#x2039;" horiz-adv-x="575" d="M72 526l182 310h250l-164 -285q-12 -18 -2 -39l156 -301h-246z" />
<glyph unicode="&#x203a;" horiz-adv-x="575" d="M72 836h250l182 -312l-176 -313h-248l158 295q10 20 -2 39z" />
<glyph unicode="&#x2044;" horiz-adv-x="374" d="M-332 -35l733 1518h271l-731 -1518h-273z" />
<glyph unicode="&#x205f;" horiz-adv-x="507" />
<glyph unicode="&#x2074;" horiz-adv-x="878" d="M45 893v166l397 571h263v-561h110v-174h-110v-178h-248v176h-412zM252 1069h205v307h-6z" />
<glyph unicode="&#x20ac;" horiz-adv-x="1144" d="M-12 543l41 239h114q29 281 182.5 420t376.5 139q111 0 219.5 -27.5t163.5 -62.5v-348l-213 10l-30 158q-2 27 -25 35q-35 14 -102 14q-217 0 -244 -338h307l-39 -239h-266q14 -178 74.5 -260t171.5 -82q59 0 98 14q20 8 23 31l32 164l211 10v-357q-51 -33 -167.5 -60.5 t-229.5 -27.5q-496 0 -543 568h-155z" />
<glyph unicode="&#x2122;" horiz-adv-x="1734" d="M49 1245v238h680v-238h-104l-11 105h-137v-523l117 -10v-104h-406v104l111 10v523h-133l-12 -105h-105zM782 713v102l74 10v549l-74 8v101h267l192 -453l186 453h259v-101l-78 -8v-549l82 -10v-102h-336v102l102 10v377l-141 -323h-162l-143 325v-379l108 -10v-102h-336z " />
<glyph unicode="&#x2126;" horiz-adv-x="1660" d="M82 0v356h213l27 -116q4 -23 32 -23h174v78q-184 70 -280 212t-96 341q0 295 190 478t514 183q346 0 516 -162.5t170 -457.5q0 -215 -114.5 -366.5t-288.5 -227.5v-78h168q29 0 32 23l27 116h213v-356h-651v389q119 47 208 162t89 299q0 408 -373 407 q-172 0 -274.5 -109.5t-102.5 -320.5q0 -156 73 -268.5t193 -167.5v-391h-659z" />
<glyph unicode="&#x2202;" horiz-adv-x="1187" d="M74 395q0 209 114.5 330t305.5 121q156 0 286 -84q18 393 -227 393q-152 0 -291 -108l-121 186q201 150 463 149q481 0 481 -618q0 -123 -14 -230.5t-52 -213t-98.5 -179t-158.5 -120t-227 -46.5q-221 0 -341 108.5t-120 311.5zM387 408q0 -88 37 -147.5t123 -59.5 q59 0 102 29.5t65.5 84t34 112.5t17.5 134q-98 76 -201 76q-178 0 -178 -229z" />
<glyph unicode="&#x2206;" horiz-adv-x="1464" d="M18 0l519 1483h374l535 -1483h-1428zM373 231h653l-330 969h-12z" />
<glyph unicode="&#x220f;" horiz-adv-x="1568" d="M23 -201l129 15q20 2 26 10t6 31v1409q0 25 -6 32t-26 9l-129 14v164h1525v-164l-137 -16q-23 -2 -28 -9.5t-5 -29.5v-1407q0 -25 5.5 -32t27.5 -9l137 -17v-159h-647v159l129 15q20 2 26.5 10t6.5 31v1398h-561v-1396q0 -25 5 -32t28 -9l137 -17v-159h-649v159z" />
<glyph unicode="&#x2211;" horiz-adv-x="1284" d="M20 -190l472 727l-453 784v162h1126v-414l-227 10l-29 156q-6 27 -35 27h-452l381 -676l-459 -699h578q29 0 32 23l33 180h225v-450h-1192v170z" />
<glyph unicode="&#x2212;" horiz-adv-x="1167" d="M188 543v237h793v-237h-793z" />
<glyph unicode="&#x2215;" horiz-adv-x="929" d="M16 -35l639 1327h267l-639 -1327h-267z" />
<glyph unicode="&#x2219;" horiz-adv-x="591" d="M102 631q0 174 190.5 174t190.5 -174q0 -84 -49 -129t-141 -45q-191 0 -191 174z" />
<glyph unicode="&#x221a;" horiz-adv-x="1185" d="M20 588l338 164l248 -461l330 1237l250 -62l-393 -1466h-287l-244 426q-12 20 -37 14l-127 -28z" />
<glyph unicode="&#x221e;" horiz-adv-x="1345" d="M72 657q0 135 89 213t222 78q162 0 303 -145q51 47 83 71.5t90.5 49t121.5 24.5q129 0 211 -73.5t82 -219.5q0 -131 -83 -210.5t-202 -79.5q-170 0 -315 159q-141 -156 -318 -155q-119 0 -201.5 73.5t-82.5 214.5zM268 659q0 -45 28 -79.5t75 -34.5q37 0 75.5 21.5t60 42 t56.5 57.5q-39 41 -57.5 58t-51 33.5t-69.5 16.5q-51 0 -84 -33t-33 -82zM795 666l53 -59q16 -17 52 -37.5t71 -20.5q51 0 79.5 33.5t28.5 81.5q0 53 -28.5 82.5t-79.5 29.5q-33 0 -68 -19.5t-53 -36.5z" />
<glyph unicode="&#x222b;" horiz-adv-x="802" d="M53 -340l53 201q70 -35 136 -35q47 0 68.5 29.5t13.5 111.5l-107 1227q-8 84 18.5 146.5t73.5 92t95.5 43t97.5 13.5q133 0 264 -47l-53 -201q-70 35 -135 35q-94 0 -82 -141l106 -1227q14 -162 -77 -228.5t-208 -66.5q-133 0 -264 47z" />
<glyph unicode="&#x2248;" horiz-adv-x="1167" d="M125 436q47 121 100.5 177.5t141.5 56.5q80 0 231.5 -38t212.5 -38q31 0 45 18.5t35 67.5l151 -43q-25 -123 -67.5 -191.5t-136.5 -68.5q-78 0 -237 38t-216 38q-39 0 -62.5 -18.5t-50.5 -65.5zM125 827q49 121 101.5 178.5t140.5 57.5q80 0 231.5 -39t212.5 -39 q31 0 47 19.5t33 66.5l151 -43q-25 -123 -67.5 -191.5t-136.5 -68.5q-78 0 -237 38t-216 38q-39 0 -61.5 -17.5t-51.5 -66.5z" />
<glyph unicode="&#x2260;" horiz-adv-x="1167" d="M188 266v240h258l54 141h-312v240h402l69 184h218l-70 -184h172v-240h-264l-53 -141h317v-240h-408l-67 -180h-217q2 4 7 15.5t7 17.5l55 147h-168z" />
<glyph unicode="&#x2264;" horiz-adv-x="1167" d="M182 0v238h793v-238h-793zM182 539v286l789 291l14 -239l-551 -187l553 -192l-12 -240z" />
<glyph unicode="&#x2265;" horiz-adv-x="1167" d="M180 498l553 192l-551 180l15 246l788 -291v-286l-792 -281zM193 0v238h792v-238h-792z" />
<glyph unicode="&#x25ca;" horiz-adv-x="1167" d="M154 629l317 663h225l318 -663l-318 -664h-225zM385 629l199 -422l196 422l-196 407z" />
<glyph unicode="&#xe000;" horiz-adv-x="1065" d="M0 1065h1065v-1065h-1065v1065z" />
<glyph />
<glyph horiz-adv-x="636" d="M41 588v260h555v-260h-555z" />
<glyph d="M352 -313l43 200q88 -2 139.5 -10t91.5 -43t40 -98q0 -57 -39 -139l-95 -197l-133 39l43 196q6 18 -10 25z" />
<glyph d="M354 1300q0 57 39 140l94 196l134 -39l-43 -196q-6 -18 10 -25l80 -26l-43 -201q-88 2 -139.5 10t-91.5 43t-40 98z" />
<glyph d="M141 1669l62 105q61 102 135 102q47 0 129 -25q145 -39 203 -51q23 -6 32 8l60 64l121 -74l-45 -82q-35 -63 -64 -90t-72 -27q-29 0 -147 29q-197 49 -201 49q-14 0 -32 -16l-68 -64z" />
<glyph d="M291 1675q0 98 64.5 159.5t156.5 61.5t155.5 -60t63.5 -156.5t-61.5 -157t-157.5 -60.5t-158.5 59.5t-62.5 153.5zM434 1679q0 -82 78 -82q76 0 76 82q0 86 -76 86q-78 0 -78 -86z" />
<glyph d="M158 1686l248 229h212l248 -229l-112 -115l-242 166l-242 -166z" />
<glyph d="M260 1706l422 250l104 -203l-454 -182z" />
<glyph d="M256 1753l104 203l422 -250l-71 -137z" />
<glyph d="M150 1743q0 63 39.5 102t105 39t105.5 -39t40 -102q0 -66 -40 -105t-105.5 -39t-105 39t-39.5 105zM575 1743q0 63 40 102t105.5 39t105.5 -39t40 -102q0 -66 -40 -105t-105.5 -39t-105.5 39t-40 105z" />
<glyph d="M160 1823l110 116l244 -165l242 165l112 -116l-247 -228h-213z" />
<glyph d="M186 1608v204h650v-204h-650z" />
<glyph d="M328 1784q0 88 48 134t136 46q90 0 138 -46t48 -134t-49 -136.5t-137 -48.5t-136 48.5t-48 136.5z" />
<glyph d="M293 -518l12 139q33 -4 51 -4q141 0 142 102q0 82 -136 86l33 256l148 -16l-19 -137q68 -12 115 -58.5t47 -125.5q0 -106 -77 -177t-232 -71q-59 0 -84 6z" />
<glyph d="M115 1677l315 348l152 -155l-361 -301zM506 1673l340 322l137 -164l-391 -262z" />
<glyph d="M352 -313l43 200q88 -2 139.5 -10t91.5 -43t40 -98q0 -57 -39 -139l-95 -197l-133 39l43 196q6 18 -10 25z" />
<glyph d="M168 1870l158 57q49 -141 186 -141q133 0 188 141l154 -57q-37 -135 -119 -201.5t-223 -66.5q-276 0 -344 268z" />
<glyph d="M393 1133q41 160 41 241q0 78 -26 127l215 82q39 -57 39 -135q0 -43 -13 -92q-37 -129 -108 -266z" />
<glyph d="M281 -297q0 174 256 342l145 -39q-164 -141 -164 -239q0 -59 60 -60q41 0 106 21l57 -152q-119 -55 -241 -55q-109 0 -164 49t-55 133z" />
</font>
</defs>
</svg>
